<?xml version="1.0" standalone="no"?>
<!DOCTYPE svg PUBLIC "-//W3C//DTD SVG 1.1//EN" "http://www.w3.org/Graphics/SVG/1.1/DTD/svg11.dtd" >
<svg xmlns="http://www.w3.org/2000/svg" xmlns:xlink="http://www.w3.org/1999/xlink" version="1.1">
<metadata>
Created by FontForge 20161003 at Mon Oct 30 12:50:40 2017
 By www-data
[c] Copyright 2000-2003, The Font Bureau, Inc. Designed by Cyrus Highsmith, Tobias Frere-Jones, and Font Bureau. All rights reserved.
</metadata>
<defs>
<font id="BentonSansCondensedBold" horiz-adv-x="481" >
  <font-face 
    font-family="BentonSansCondensedBold"
    font-weight="700"
    font-stretch="condensed"
    units-per-em="1000"
    panose-1="2 0 8 6 5 0 0 2 0 4"
    ascent="800"
    descent="-200"
    x-height="533"
    cap-height="740"
    bbox="-74 -210 1270 952"
    underline-thickness="20"
    underline-position="-153"
    unicode-range="U+0020-FB02"
  />
<missing-glyph horiz-adv-x="500" 
 />
    <glyph glyph-name=".notdef" horiz-adv-x="500" 
 />
    <glyph glyph-name=".null" horiz-adv-x="0" 
 />
    <glyph glyph-name="nonmarkingreturn" horiz-adv-x="333" 
 />
    <glyph glyph-name="space" unicode=" " horiz-adv-x="224" 
 />
    <glyph glyph-name="exclam" unicode="!" horiz-adv-x="313" 
d="M99 220l-30 520h180l-31 -520h-119zM78 0v142h161v-142h-161z" />
    <glyph glyph-name="quotedbl" unicode="&#x22;" horiz-adv-x="408" 
d="M244 474l-14 204v62h127v-62l-14 -204h-99zM65 474l-15 204v62h128v-62l-14 -204h-99z" />
    <glyph glyph-name="numbersign" unicode="#" horiz-adv-x="653" 
d="M77 0l33 194h-91v113h112l23 126h-99v113h119l35 194h132l-34 -194h91l35 194h132l-34 -194h102v-113h-123l-22 -126h108v-113h-129l-33 -194h-133l33 194h-90l-34 -194h-133zM263 305h93l23 130h-93z" />
    <glyph glyph-name="dollar" unicode="$" horiz-adv-x="578" 
d="M237 739v80h104v-80q132 -23 185 -176l-123 -49q-42 107 -124 107q-40 0 -61.5 -19.5t-21.5 -51.5q0 -30 19 -52.5t49.5 -37t67 -27.5t73 -30.5t67 -40.5t49.5 -62.5t19 -91.5q0 -83 -51 -139t-148 -68v-94h-104v95q-156 24 -208 198l128 37q43 -122 138 -122
q45 0 72.5 20.5t27.5 59.5q0 42 -35.5 69.5t-86 45.5t-100.5 40.5t-85.5 70t-35.5 118.5q0 81 49.5 134t135.5 66z" />
    <glyph glyph-name="percent" unicode="%" horiz-adv-x="922" 
d="M197 267q-82 0 -127 61.5t-45 180.5q0 118 45 179t127 61q83 0 127 -61t44 -179q0 -120 -44 -181t-127 -61zM212 0l375 740h122l-375 -740h-122zM726 -9q-82 0 -127 61.5t-45 180.5q0 118 45 179.5t127 61.5q83 0 127 -61t44 -180q0 -120 -44 -181t-127 -61zM197 372
q29 0 39.5 31t10.5 106q0 73 -11 103.5t-39 30.5q-29 0 -40 -30.5t-11 -103.5q0 -74 11.5 -105.5t39.5 -31.5zM726 96q29 0 39.5 31t10.5 106q0 73 -11 103.5t-39 30.5q-29 0 -40 -30.5t-11 -103.5q0 -74 11.5 -105.5t39.5 -31.5z" />
    <glyph glyph-name="ampersand" unicode="&#x26;" horiz-adv-x="647" 
d="M257 -14q-118 0 -181.5 50.5t-63.5 140.5q0 78 38.5 128.5t107.5 92.5q-42 91 -42 173t50.5 132.5t137.5 50.5t129.5 -44t42.5 -110q0 -75 -40 -124t-113 -96q12 -19 38 -57q39 -55 75 -94q28 67 34 152h127q-18 -137 -64 -227q54 -34 108 -37v-127q-112 3 -196 56
q-76 -60 -188 -60zM278 468q74 55 74 124q0 57 -46 57q-25 0 -40 -18t-15 -51q0 -50 27 -112zM263 94q50 0 87 28q-44 47 -94 117q-25 34 -44 63q-54 -47 -54 -108q0 -49 27.5 -74.5t77.5 -25.5z" />
    <glyph glyph-name="quotesingle" unicode="'" horiz-adv-x="230" 
d="M65 474l-15 204v62h129v-62l-15 -204h-99z" />
    <glyph glyph-name="parenleft" unicode="(" horiz-adv-x="360" 
d="M250 -206q-216 211 -216 486q0 273 216 484l86 -65q-148 -197 -148 -419q0 -118 40.5 -228.5t110.5 -193.5z" />
    <glyph glyph-name="parenright" unicode=")" horiz-adv-x="360" 
d="M110 -206l-89 64q151 197 151 421q0 117 -40.5 227t-108.5 193l86 65q216 -210 216 -485q0 -270 -215 -485z" />
    <glyph glyph-name="asterisk" unicode="*" horiz-adv-x="482" 
d="M177 329l-83 49l91 127l-156 -15v94l159 -16l-95 129l84 49l64 -144l64 144l84 -49l-93 -128l157 15v-94l-156 15l92 -127l-83 -49l-65 143z" />
    <glyph glyph-name="plus" unicode="+" horiz-adv-x="565" 
d="M220 84v196h-166v122h166v196h125v-196h166v-122h-166v-196h-125z" />
    <glyph glyph-name="comma" unicode="," horiz-adv-x="245" 
d="M64 -112l42 112h-60v152h152v-135l-65 -129h-69z" />
    <glyph glyph-name="hyphen" unicode="-" horiz-adv-x="316" 
d="M37 257v108h242v-108h-242z" />
    <glyph glyph-name="period" unicode="." horiz-adv-x="245" 
d="M46 0v152h152v-152h-152z" />
    <glyph glyph-name="slash" unicode="/" horiz-adv-x="541" 
d="M12 0l365 740h152l-366 -740h-151z" />
    <glyph glyph-name="zero" unicode="0" horiz-adv-x="594" 
d="M297 -14q-128 0 -196.5 97.5t-68.5 286.5t68.5 286.5t196.5 97.5t196 -97.5t68 -286.5t-68 -286.5t-196 -97.5zM297 109q59 0 86 61t27 200q0 137 -27.5 197t-85.5 60q-59 0 -86.5 -59.5t-27.5 -197.5q0 -137 28 -199t86 -62z" />
    <glyph glyph-name="one" unicode="1" horiz-adv-x="405" 
d="M26 0v122h115v478q-54 -34 -113 -34v126q76 3 117 48h142v-618h101v-122h-362z" />
    <glyph glyph-name="two" unicode="2" horiz-adv-x="530" 
d="M22 0v16q0 70 18 128t46.5 96t63 70t69 58t63 51.5t46.5 58.5t18 71q0 76 -74 76q-77 0 -123 -108l-120 54q81 183 253 183q101 0 157 -54.5t56 -143.5q0 -55 -22 -103t-55 -80.5t-72 -65t-72.5 -58t-56 -59t-23.5 -68.5h299v-122h-471z" />
    <glyph glyph-name="three" unicode="3" horiz-adv-x="540" 
d="M259 -13q-187 0 -257 167l119 53q42 -101 131 -101q50 0 79 29.5t29 74.5q0 64 -39 93t-118 29h-34v113h43q73 0 102 26.5t29 79.5q0 36 -20 58t-63 22q-75 0 -128 -78l-101 68q91 133 242 133q100 0 158.5 -51t58.5 -135q0 -64 -33.5 -110t-91.5 -63q142 -41 142 -188
q0 -102 -68.5 -161t-179.5 -59z" />
    <glyph glyph-name="four" unicode="4" horiz-adv-x="579" 
d="M319 0v155h-302v105l284 480h163v-470h101v-115h-101v-155h-145zM161 270h160v275h-1z" />
    <glyph glyph-name="five" unicode="5" horiz-adv-x="532" 
d="M263 -14q-177 0 -253 163l118 55q45 -99 129 -99q108 0 108 139q0 67 -27 101.5t-77 34.5q-65 0 -107 -66l-107 23l25 403h396l-7 -129h-269l-13 -175q43 60 134 60q97 0 148 -64t51 -183q0 -124 -66.5 -193.5t-182.5 -69.5z" />
    <glyph glyph-name="six" unicode="6" horiz-adv-x="555" 
d="M291 -14q-123 0 -191 94.5t-68 276.5q0 196 73.5 296.5t198.5 100.5q141 0 210 -130l-119 -61q-41 71 -94 71q-114 0 -124 -219q70 62 156 62q94 0 148 -63t54 -176t-66 -182.5t-178 -69.5zM299 101q46 0 70 35t24 95q0 125 -94 125q-67 0 -122 -52q6 -106 36 -154.5
t86 -48.5z" />
    <glyph glyph-name="seven" unicode="7" horiz-adv-x="470" 
d="M66 0l239 611h-294v129h449v-120l-240 -620h-154z" />
    <glyph glyph-name="eight" unicode="8" horiz-adv-x="552" 
d="M276 -14q-124 0 -190.5 54.5t-66.5 144.5q0 123 143 201q-58 38 -86.5 77t-28.5 106q0 78 60.5 131.5t168.5 53.5q111 0 170 -53.5t59 -131.5q0 -56 -30.5 -103.5t-83.5 -78.5q71 -39 106.5 -82t35.5 -120q0 -91 -68 -145t-189 -54zM284 446q77 48 77 110q0 35 -20 58.5
t-63 23.5q-42 0 -63.5 -22.5t-21.5 -56.5q0 -38 22.5 -63.5t68.5 -49.5zM276 97q50 0 78 27t28 69q0 41 -27.5 70.5t-87.5 59.5q-98 -58 -98 -130q0 -42 28 -69t79 -27z" />
    <glyph glyph-name="nine" unicode="9" horiz-adv-x="555" 
d="M251 -14q-143 0 -212 131l119 62q42 -76 96 -76q114 0 123 222q-70 -62 -155 -62q-94 0 -148 63t-54 176q0 112 67 182t177 70q126 0 192.5 -93.5t66.5 -277.5q0 -196 -73.5 -296.5t-198.5 -100.5zM256 384q68 0 121 52q-6 105 -36 152t-85 47q-47 0 -70.5 -33.5
t-23.5 -92.5q0 -125 94 -125z" />
    <glyph glyph-name="colon" unicode=":" horiz-adv-x="254" 
d="M51 381v152h152v-152h-152zM51 0v152h152v-152h-152z" />
    <glyph glyph-name="semicolon" unicode=";" horiz-adv-x="254" 
d="M51 381v152h152v-152h-152zM67 -112l42 112h-58v152h152v-133l-67 -131h-69z" />
    <glyph glyph-name="less" unicode="&#x3c;" horiz-adv-x="577" 
d="M512 58l-450 219v94l450 219v-127l-303 -139l303 -139v-127z" />
    <glyph glyph-name="equal" unicode="=" horiz-adv-x="565" 
d="M59 380v111h446v-111h-446zM59 162v111h446v-111h-446z" />
    <glyph glyph-name="greater" unicode="&#x3e;" horiz-adv-x="577" 
d="M65 58v127l303 139l-303 139v127l451 -219v-94z" />
    <glyph glyph-name="question" unicode="?" horiz-adv-x="501" 
d="M174 219q-2 22 -2 60q0 40 16 75.5t32 54t47 48.5q32 31 47 55t15 55t-18 48t-50 17q-66 0 -108 -98l-121 45q30 82 91 128.5t149 46.5q95 0 146.5 -49t51.5 -124q0 -44 -16 -80.5t-30.5 -52.5t-46.5 -47q-50 -50 -64 -81.5t-14 -100.5h-125zM156 0v142h161v-142h-161z
" />
    <glyph glyph-name="at" unicode="@" horiz-adv-x="754" 
d="M372 -14q-159 0 -249 100t-90 283q0 175 95.5 280t249.5 105t248.5 -102.5t94.5 -271.5q0 -108 -45 -166.5t-129 -58.5q-94 0 -124 79q-53 -73 -128 -73q-57 0 -87.5 45.5t-28.5 124.5q1 119 46 188.5t117 69.5q66 0 96 -52l6 43h111l-38 -292q-4 -38 7 -54t40 -16
q41 0 65 39t24 121q0 147 -75 230t-201 83t-200 -84t-74 -237q0 -163 72 -243.5t200 -80.5q105 0 175 45l30 -49q-37 -26 -94 -41t-114 -15zM343 254q31 0 62 31l22 180q-23 28 -56 28q-36 0 -55.5 -40t-21.5 -109q-3 -90 49 -90z" />
    <glyph glyph-name="A" unicode="A" horiz-adv-x="602" 
d="M194 156l-41 -156h-142l217 743h146l217 -743h-153l-40 156h-204zM367 274l-19 75q-43 168 -50 202h-2q-7 -37 -51 -201l-20 -76h142z" />
    <glyph glyph-name="B" unicode="B" horiz-adv-x="603" 
d="M61 0v740h253q233 0 233 -185q0 -137 -121 -170v-2q66 -13 102 -54.5t36 -126.5q0 -104 -68.5 -153t-172.5 -49h-262zM209 432h95q101 0 101 92q0 48 -24 70t-76 22h-96v-184zM209 119h104q106 0 106 103t-113 103h-97v-206z" />
    <glyph glyph-name="C" unicode="C" horiz-adv-x="605" 
d="M316 -13q-133 0 -208.5 95t-75.5 289q0 191 78 287t210 96q115 0 175 -66t77 -189l-143 -25q-13 79 -38.5 114.5t-75.5 35.5q-130 0 -130 -253q0 -259 132 -259q51 0 78.5 37t41.5 123l143 -23q-47 -262 -264 -262z" />
    <glyph glyph-name="D" unicode="D" horiz-adv-x="626" 
d="M61 0v740h194q78 0 137.5 -18t106 -58.5t71 -114t24.5 -177.5q0 -105 -25 -179t-72 -115.5t-106 -59.5t-136 -18h-194zM213 127h56q96 0 134.5 55t38.5 190q0 131 -39 185.5t-135 54.5h-55v-485z" />
    <glyph glyph-name="E" unicode="E" horiz-adv-x="526" 
d="M61 0v740h424v-128h-272v-167h196v-121h-196v-199h286v-125h-438z" />
    <glyph glyph-name="F" unicode="F" horiz-adv-x="494" 
d="M61 0v740h416v-128h-264v-183h189v-121h-189v-308h-152z" />
    <glyph glyph-name="G" unicode="G" horiz-adv-x="636" 
d="M301 -12q-130 0 -199.5 101t-69.5 283q0 183 75 282.5t213 99.5q106 0 166.5 -61t83.5 -194l-138 -27q-15 83 -42.5 117.5t-74.5 34.5q-130 0 -130 -250q0 -142 36 -202t102 -60q106 0 121 142h-107v114h244v-368h-112v95h-1q-15 -42 -59.5 -74.5t-107.5 -32.5z" />
    <glyph glyph-name="H" unicode="H" horiz-adv-x="647" 
d="M61 0v740h152v-290h221v290h152v-740h-152v324h-221v-324h-152z" />
    <glyph glyph-name="I" unicode="I" horiz-adv-x="285" 
d="M67 0v740h152v-740h-152z" />
    <glyph glyph-name="J" unicode="J" horiz-adv-x="457" 
d="M204 -11q-109 0 -195 56l61 111q59 -37 115 -37q68 0 68 82v539h152v-554q0 -93 -50.5 -145t-150.5 -52z" />
    <glyph glyph-name="K" unicode="K" horiz-adv-x="606" 
d="M61 0v740h151v-322q29 53 64 106l137 216h162l-198 -291l222 -449h-164l-156 319l-67 -92v-227h-151z" />
    <glyph glyph-name="L" unicode="L" horiz-adv-x="512" 
d="M61 0v740h152v-615h278v-125h-430z" />
    <glyph glyph-name="M" unicode="M" horiz-adv-x="767" 
d="M61 0v740h194l130 -529h1l122 529h197v-740h-144v520h-2q-6 -63 -38 -182l-88 -338h-113l-86 338q-31 119 -38 186h-2v-524h-133z" />
    <glyph glyph-name="N" unicode="N" horiz-adv-x="652" 
d="M61 0v740h157l170 -332q35 -68 60 -127h2v459h138v-740h-141l-192 359q-32 61 -54 110h-2v-469h-138z" />
    <glyph glyph-name="O" unicode="O" horiz-adv-x="652" 
d="M326 -14q-128 0 -211 97.5t-83 286.5t83 286.5t211 97.5q127 0 210 -97.5t83 -286.5t-83 -286.5t-210 -97.5zM326 112q68 0 104 67t36 191q0 123 -36 188.5t-104 65.5q-69 0 -105 -65.5t-36 -188.5q0 -124 36 -191t105 -67z" />
    <glyph glyph-name="P" unicode="P" horiz-adv-x="573" 
d="M61 0v740h224q115 0 186.5 -55t71.5 -183q0 -70 -22 -120t-60.5 -76t-82 -37t-95.5 -11h-72v-258h-150zM211 378h76q59 0 85 29t26 91q0 60 -26 87.5t-86 27.5h-75v-235z" />
    <glyph glyph-name="Q" unicode="Q" horiz-adv-x="652" 
d="M462 -198q-213 0 -215 198q-98 24 -157 117.5t-59 252.5q0 189 83 286.5t211 97.5t210.5 -97.5t82.5 -286.5q0 -165 -62.5 -259t-164.5 -114q9 -46 35 -59t92 -13h40v-123h-96zM325 112q68 0 104 67t36 191t-35.5 189t-104.5 65t-105 -65.5t-36 -188.5q0 -124 36 -191
t105 -67z" />
    <glyph glyph-name="R" unicode="R" horiz-adv-x="593" 
d="M61 0v740h231q251 0 251 -232q0 -73 -33 -123.5t-89 -73.5l141 -311h-157l-125 274h-70v-274h-149zM210 390h77q57 0 84 26.5t27 88.5q0 59 -27 83.5t-84 24.5h-77v-223z" />
    <glyph glyph-name="S" unicode="S" horiz-adv-x="588" 
d="M305 -13q-193 0 -278 176l123 62q58 -117 155 -117q47 0 72.5 23t25.5 61q0 22 -9.5 39.5t-31 32t-39.5 24t-51 23.5q-42 18 -61 26.5t-55 31t-53.5 44t-32 57t-14.5 78.5q0 91 66.5 148.5t168.5 57.5q170 0 249 -165l-118 -64q-52 104 -134 104q-39 0 -61 -21t-22 -53
q0 -40 30 -64.5t92 -52.5q101 -44 137 -70q88 -64 88 -170q0 -89 -65.5 -150t-181.5 -61z" />
    <glyph glyph-name="T" unicode="T" horiz-adv-x="537" 
d="M192 0v612h-176v128h505v-128h-177v-612h-152z" />
    <glyph glyph-name="U" unicode="U" horiz-adv-x="611" 
d="M307 -12q-255 0 -255 268v484h152v-475q0 -78 24.5 -113.5t80.5 -35.5t80.5 35.5t24.5 112.5v476h145v-483q0 -269 -252 -269z" />
    <glyph glyph-name="V" unicode="V" horiz-adv-x="587" 
d="M220 -3l-209 743h153l87 -350q29 -114 45 -197h2q7 36 46 195l90 352h142l-209 -743h-147z" />
    <glyph glyph-name="W" unicode="W" horiz-adv-x="808" 
d="M180 -3l-165 743h146l57 -297q20 -103 34 -197h2q6 45 33 196l55 298h136l56 -303q22 -113 33 -192h2q14 99 32 190l58 305h135l-165 -743h-132l-92 487h-2l-92 -487h-131z" />
    <glyph glyph-name="X" unicode="X" horiz-adv-x="602" 
d="M17 0l202 391l-180 349h165l105 -225l101 225h147l-177 -344l203 -396h-162l-129 271l-125 -271h-150z" />
    <glyph glyph-name="Y" unicode="Y" horiz-adv-x="575" 
d="M211 0v290l-208 450h155l132 -312h2l132 312h148l-209 -449v-291h-152z" />
    <glyph glyph-name="Z" unicode="Z" horiz-adv-x="551" 
d="M22 0v110l319 502h-297v128h476v-113l-314 -502h314v-125h-498z" />
    <glyph glyph-name="bracketleft" unicode="[" horiz-adv-x="377" 
d="M56 -200v940h300v-107h-150v-727h150v-106h-300z" />
    <glyph glyph-name="backslash" unicode="\" horiz-adv-x="526" 
d="M369 0l-365 740h152l365 -740h-152z" />
    <glyph glyph-name="bracketright" unicode="]" horiz-adv-x="377" 
d="M21 -200v106h149v727h-149v107h300v-940h-300z" />
    <glyph glyph-name="asciicircum" unicode="^" horiz-adv-x="480" 
d="M81 587l110 166h98l110 -166h-85l-75 70l-73 -70h-85z" />
    <glyph glyph-name="underscore" unicode="_" horiz-adv-x="437" 
d="M-8 -152v106h453v-106h-453z" />
    <glyph glyph-name="grave" unicode="`" 
d="M212 587l-124 166h146l80 -166h-102z" />
    <glyph glyph-name="a" unicode="a" horiz-adv-x="497" 
d="M151 -6q-59 0 -94.5 34t-35.5 105q0 160 287 212v22q0 31 -12.5 46t-41.5 15q-68 0 -147 -58l-67 88q99 86 242 86q88 0 128.5 -43t40.5 -134v-237q0 -95 13 -130h-146q-10 33 -10 72q-61 -78 -157 -78zM214 107q50 0 94 42v118q-77 -17 -110.5 -43t-33.5 -64
q0 -26 13.5 -39.5t36.5 -13.5z" />
    <glyph glyph-name="b" unicode="b" horiz-adv-x="534" 
d="M334 -8q-85 0 -136 69v-61h-148v739h148v-277q56 82 138 82q80 0 126.5 -69.5t46.5 -207.5t-47 -206.5t-128 -68.5zM281 107q79 0 79 159q0 79 -19 116t-61 37q-38 0 -82 -48v-219q43 -45 83 -45z" />
    <glyph glyph-name="c" unicode="c" 
d="M253 -11q-97 0 -162.5 69t-65.5 208q0 141 68 209.5t165 68.5q91 0 137.5 -46t66.5 -129l-131 -31q-11 48 -28 69.5t-47 21.5q-83 0 -83 -163q0 -167 82 -167q62 0 82 97l127 -31q-44 -176 -211 -176z" />
    <glyph glyph-name="d" unicode="d" horiz-adv-x="534" 
d="M199 -8q-81 0 -127 67t-46 205q0 139 46.5 209.5t127.5 70.5q85 0 137 -72v268h147v-610q0 -92 14 -130h-151q-10 25 -10 68q-55 -76 -138 -76zM255 107q37 0 82 47v220q-42 46 -83 46t-60.5 -37t-19.5 -118q0 -158 81 -158z" />
    <glyph glyph-name="e" unicode="e" horiz-adv-x="494" 
d="M259 -11q-103 0 -168.5 68.5t-65.5 208.5q0 73 20.5 128.5t54 87t73 47t82.5 15.5q96 0 155 -70.5t59 -216.5v-27h-299q7 -131 96 -131q36 0 66.5 20t48.5 49l86 -69q-76 -110 -208 -110zM171 314h164q-7 117 -80 117t-84 -117z" />
    <glyph glyph-name="f" unicode="f" horiz-adv-x="347" 
d="M91 0v424h-76v109h76v49q0 76 35.5 118t133.5 42q65 0 77 -4v-109q-18 3 -37 3q-30 0 -46.5 -11.5t-16.5 -45.5v-42h96v-109h-96v-424h-146z" />
    <glyph glyph-name="g" unicode="g" horiz-adv-x="526" 
d="M394 491q23 21 55.5 36t61.5 18v-122q-42 0 -74 -7q12 -34 12 -65q0 -89 -55.5 -140.5t-151.5 -51.5q-36 0 -68 8q-15 -12 -15 -25t10 -18t39 -8l69 -5q120 -8 169 -42.5t49 -106.5q0 -76 -74.5 -119t-194.5 -43q-121 0 -172.5 30t-51.5 88q0 66 80 107q-42 25 -42 69
q0 27 19 54.5t49 46.5q-77 54 -77 156q0 88 56.5 140.5t154.5 52.5q97 0 152 -53zM243 250q35 0 53.5 26t18.5 71q0 96 -72 96q-35 0 -53.5 -25.5t-18.5 -70.5t18.5 -71t53.5 -26zM162 1q-29 -25 -29 -57q0 -35 27 -50t90 -15q51 0 82.5 16t31.5 44q0 26 -20.5 37.5
t-89.5 16.5l-79 7q-9 0 -13 1z" />
    <glyph glyph-name="h" unicode="h" horiz-adv-x="532" 
d="M50 0v740h148v-281q23 33 65 59t94 26q129 0 129 -140v-404h-147v357q0 62 -48 62q-41 0 -93 -48v-371h-148z" />
    <glyph glyph-name="i" unicode="i" horiz-adv-x="258" 
d="M55 601v128h148v-128h-148zM55 0v533h148v-533h-148z" />
    <glyph glyph-name="j" unicode="j" horiz-adv-x="258" 
d="M55 601v128h148v-128h-148zM44 -202q-61 0 -76 5v105q18 -3 36 -3q51 0 51 61v567h148v-583q0 -74 -33.5 -113t-125.5 -39z" />
    <glyph glyph-name="k" unicode="k" horiz-adv-x="499" 
d="M50 0v740h145v-422q10 20 50 84l84 131h149l-140 -198l151 -335h-150l-94 216l-50 -70v-146h-145z" />
    <glyph glyph-name="l" unicode="l" horiz-adv-x="258" 
d="M55 0v740h148v-740h-148z" />
    <glyph glyph-name="m" unicode="m" horiz-adv-x="802" 
d="M50 0v533h148v-74q24 34 64.5 59.5t87.5 25.5q102 0 122 -85q25 34 66 59.5t88 25.5q130 0 130 -145v-399h-147v357q0 33 -9.5 47.5t-36.5 14.5q-36 0 -86 -48v-371h-148v357q0 32 -9.5 47t-34.5 15q-37 0 -87 -48v-371h-148z" />
    <glyph glyph-name="n" unicode="n" horiz-adv-x="532" 
d="M50 0v533h148v-74q23 33 65 59t94 26q129 0 129 -140v-404h-147v357q0 62 -48 62q-41 0 -93 -48v-371h-148z" />
    <glyph glyph-name="o" unicode="o" horiz-adv-x="520" 
d="M260 -11q-100 0 -167.5 69t-67.5 208q0 141 67 209.5t168 68.5q100 0 167.5 -69t67.5 -209q0 -139 -67.5 -208t-167.5 -69zM260 102q87 0 87 164q0 161 -87 161t-87 -161q0 -164 87 -164z" />
    <glyph glyph-name="p" unicode="p" horiz-adv-x="534" 
d="M50 -200v733h148v-71q55 82 138 82q80 0 126 -69.5t46 -207.5t-46.5 -206.5t-127.5 -68.5q-86 0 -136 69v-261h-148zM281 107q79 0 79 159q0 79 -19 116t-61 37q-38 0 -82 -48v-219q43 -45 83 -45z" />
    <glyph glyph-name="q" unicode="q" horiz-adv-x="534" 
d="M336 -200v266q-56 -74 -137 -74t-127 67t-46 205q0 139 46.5 209.5t127.5 70.5q83 0 136 -71v60h148v-733h-148zM255 107q36 0 81 47v220q-41 46 -82 46t-60.5 -37t-19.5 -118q0 -158 81 -158z" />
    <glyph glyph-name="r" unicode="r" horiz-adv-x="369" 
d="M50 0v533h148v-86h2q51 97 148 97l9 -1l-2 -135q-12 3 -31 3q-78 0 -126 -61v-350h-148z" />
    <glyph glyph-name="s" unicode="s" horiz-adv-x="464" 
d="M233 -12q-143 0 -224 92l77 83q32 -33 72.5 -52.5t76.5 -19.5q70 0 70 49q0 23 -20 38.5t-50 23.5t-64.5 21t-64.5 28.5t-50 49.5t-20 81q0 77 56.5 119.5t140.5 42.5q54 0 107 -22.5t88 -62.5l-77 -82q-63 60 -119 60q-58 0 -58 -46q0 -26 27.5 -42.5t67 -27.5t79 -26.5
t67 -51.5t27.5 -92q0 -77 -60.5 -120t-148.5 -43z" />
    <glyph glyph-name="t" unicode="t" horiz-adv-x="367" 
d="M249 -6q-94 0 -128 32t-34 107v291h-76v109h76v183h147v-183h114v-109h-114v-254q0 -41 13 -55t50 -14q30 0 44 6v-106q-23 -7 -92 -7z" />
    <glyph glyph-name="u" unicode="u" horiz-adv-x="532" 
d="M175 -11q-129 0 -129 140v404h147v-361q0 -61 49 -61q44 0 92 48v374h148v-533h-148v73q-25 -34 -66 -59t-93 -25z" />
    <glyph glyph-name="v" unicode="v" horiz-adv-x="469" 
d="M155 -1l-155 534h149l59 -238q21 -92 31 -145h2q12 69 31 144l60 239h137l-155 -534h-159z" />
    <glyph glyph-name="w" unicode="w" horiz-adv-x="667" 
d="M126 -1l-125 534h143l39 -180q16 -80 27 -154h2q11 77 29 155l39 179h124l39 -176q19 -83 30 -159h2q12 85 28 157l37 178h126l-124 -534h-133l-74 327h-2l-74 -327h-133z" />
    <glyph glyph-name="x" unicode="x" horiz-adv-x="469" 
d="M6 0l156 274l-143 259h152l76 -150l69 150h140l-144 -253l155 -280h-152l-85 168l-83 -168h-141z" />
    <glyph glyph-name="y" unicode="y" 
d="M117 -202q-76 0 -125 15l28 116q47 -10 78 -10q26 0 39.5 11t21.5 38l9 26l-169 539h154l53 -207q25 -102 37 -165h2q13 68 39 168l53 204h142l-185 -585q-25 -78 -64.5 -114t-112.5 -36z" />
    <glyph glyph-name="z" unicode="z" horiz-adv-x="451" 
d="M22 0v82l220 342h-202v109h377v-86l-220 -341h235v-106h-410z" />
    <glyph glyph-name="braceleft" unicode="{" horiz-adv-x="383" 
d="M252 -200q-68 0 -103 38t-35 105v163q0 67 -20.5 88.5t-73.5 21.5v108q54 0 74 21.5t20 88.5v163q0 67 35.5 105t107.5 38h111v-107h-37q-35 0 -50.5 -18t-15.5 -56v-139q0 -70 -19 -102.5t-61 -46.5v-2q42 -14 61 -46.5t19 -102.5v-143q0 -36 15.5 -53.5t50.5 -17.5h37
v-106h-116z" />
    <glyph glyph-name="bar" unicode="|" horiz-adv-x="346" 
d="M99 -200v940h148v-940h-148z" />
    <glyph glyph-name="braceright" unicode="}" horiz-adv-x="383" 
d="M14 -200v106h37q35 0 51 17t16 54v150q0 69 18.5 98t61.5 44v2q-43 15 -61.5 44t-18.5 98v146q0 38 -15.5 56t-51.5 18h-37v107h120q71 0 103 -34t32 -102v-170q0 -67 19.5 -88.5t74.5 -21.5v-108q-54 0 -74 -21.5t-20 -88.5v-170q0 -136 -131 -136h-124z" />
    <glyph glyph-name="asciitilde" unicode="~" 
d="M309 372q-36 0 -75.5 28t-54.5 28q-36 0 -36 -54h-77q0 159 106 159q37 0 76.5 -28t54.5 -28q35 0 35 54h77q0 -159 -106 -159z" />
    <glyph glyph-name="nbspace" unicode="&#xa0;" horiz-adv-x="112" 
 />
    <glyph glyph-name="exclamdown" unicode="&#xa1;" horiz-adv-x="313" 
d="M73 598v142h161v-142h-161zM64 0l30 520h119l30 -520h-179z" />
    <glyph glyph-name="cent" unicode="&#xa2;" 
d="M251 544l14 77h104l-18 -95q82 -36 111 -157l-131 -31q-11 49 -28 71t-47 22q-85 0 -85 -165q0 -169 84 -169q62 0 82 99l127 -31q-44 -176 -211 -176h-5l-17 -91h-103l21 115q-124 63 -124 253q0 139 65.5 207t160.5 71z" />
    <glyph glyph-name="sterling" unicode="&#xa3;" horiz-adv-x="608" 
d="M198 334h-124v88h80q-38 80 -38 136q0 87 55 141.5t147 54.5q102 0 151 -52t61 -148l-133 -21q-7 51 -23.5 77t-52.5 26q-29 0 -46 -19.5t-17 -55.5q0 -47 44 -139h152v-88h-115q20 -57 20 -115q0 -55 -21 -101q32 -21 62 -21q32 0 46.5 25t15.5 91h130
q-2 -110 -40 -168.5t-132 -58.5q-73 0 -138 54q-59 -54 -140 -54q-57 0 -97 29.5t-40 86.5q0 60 38.5 94.5t96.5 34.5q43 0 91 -30v8q0 50 -33 125zM209 110q-39 37 -66 37q-17 0 -28 -10.5t-11 -29.5q0 -18 11 -28.5t29 -10.5q42 0 65 42z" />
    <glyph glyph-name="currency" unicode="&#xa4;" horiz-adv-x="631" 
d="M103 398h-87v88h94q20 136 85 202t166 66t161.5 -59t75.5 -168l-138 -24q-19 127 -97 127q-86 0 -107 -144h142v-88h-148v-27v-38h148v-88h-142q10 -71 36 -105t74 -34q81 0 104 134l136 -17q-17 -105 -80 -171t-161 -66q-102 0 -167.5 63.5t-85.5 195.5h-96v88h88
q-1 12 -1 38v27z" />
    <glyph glyph-name="yen" unicode="&#xa5;" horiz-adv-x="575" 
d="M359 232v-66h157v-87h-157v-79h-144v79h-156v87h156v66h-156v87h142l-198 421h155l132 -314h2l132 314h148l-200 -421h144v-87h-157z" />
    <glyph glyph-name="brokenbar" unicode="&#xa6;" horiz-adv-x="346" 
d="M99 331v409h148v-409h-148zM99 -200v409h148v-409h-148z" />
    <glyph glyph-name="section" unicode="&#xa7;" horiz-adv-x="522" 
d="M256 -204q-97 0 -142.5 43.5t-67.5 126.5l121 34q24 -96 86 -96q60 0 60 62q0 21 -16 42t-34 34t-57 39q-44 27 -62.5 40.5t-49 41.5t-43 59t-12.5 69q0 47 24.5 88t62.5 68q-55 57 -55 129q0 76 51.5 127.5t142.5 51.5q99 0 145 -43.5t67 -127.5l-120 -33q-25 95 -89 95
q-61 0 -61 -61q0 -31 26 -55.5t83 -59.5q35 -22 49.5 -32t42.5 -32.5t40 -41t23 -46.5t11 -59q0 -92 -87 -156q54 -57 54 -129q0 -76 -51.5 -127t-141.5 -51zM313 168q40 30 40 67q0 35 -24 61t-88 66q-10 6 -32 20q-41 -30 -41 -66q0 -35 24 -60.5t88 -66.5q4 -2 11 -6.5
t12.5 -8t9.5 -6.5z" />
    <glyph glyph-name="dieresis" unicode="&#xa8;" 
d="M274 584v138h124v-138h-124zM83 584v138h126v-138h-126z" />
    <glyph glyph-name="copyright" unicode="&#xa9;" horiz-adv-x="723" 
d="M360 -14q-141 0 -232.5 109.5t-91.5 272.5q0 164 93 275t233 111q141 0 233 -109.5t92 -272.5q0 -164 -93.5 -275t-233.5 -111zM362 51q112 0 182.5 89.5t70.5 227.5t-71.5 229.5t-183.5 91.5t-182 -89.5t-70 -227.5t71.5 -229.5t182.5 -91.5zM361 155q-72 0 -112.5 56.5
t-40.5 161.5t41 161.5t114 56.5q116 0 140 -140l-84 -16q-8 35 -20 52.5t-37 17.5q-30 0 -46 -35.5t-16 -96.5q0 -131 63 -131q45 0 58 76l85 -17q-15 -70 -48.5 -108t-96.5 -38z" />
    <glyph glyph-name="ordfeminine" unicode="&#xaa;" horiz-adv-x="389" 
d="M127 363q-41 0 -66.5 24t-25.5 74q0 116 201 152v15q0 41 -37 41q-50 0 -102 -40l-49 62q69 61 171 61q62 0 90.5 -30t28.5 -94v-167q0 -67 10 -92h-105q-7 26 -7 50q-43 -56 -109 -56zM171 445q33 0 65 30v81q-98 -22 -98 -75q0 -36 33 -36z" />
    <glyph glyph-name="guillemotleft" unicode="&#xab;" horiz-adv-x="540" 
d="M379 0l-135 265l135 265h138l-129 -265l129 -265h-138zM154 0l-135 265l135 265h138l-129 -265l129 -265h-138z" />
    <glyph glyph-name="logicalnot" unicode="&#xac;" horiz-adv-x="765" 
d="M160 591v32l167 -15l-21 132h153l-22 -132l168 15v-32h31l-15 -167l131 21v-153l-131 22l15 -168h-31v-29l-168 15l22 -132h-153l21 132l-167 -15v29h-31l15 168l-132 -22v153l132 -21l-15 167h31zM528 516l-98 7v-107h106zM335 416v107l-98 -7l-8 -100h106zM430 321
v-105l98 8l8 97h-106zM237 224l98 -8v105h-106z" />
    <glyph glyph-name="registered" unicode="&#xae;" horiz-adv-x="723" 
d="M360 -14q-141 0 -232.5 109.5t-91.5 272.5q0 164 93 275t233 111q141 0 233 -109.5t92 -272.5q0 -164 -93.5 -275t-233.5 -111zM362 48q112 0 183 91t71 229q0 139 -72.5 231.5t-183.5 92.5t-182.5 -91t-71.5 -229q0 -139 72.5 -231.5t183.5 -92.5zM229 171v414h137
q141 0 141 -136q0 -85 -61 -120l65 -158h-98l-59 145h-33v-145h-92zM321 390h40q29 0 42.5 13t13.5 43q0 54 -56 54h-40v-110z" />
    <glyph glyph-name="macron" unicode="&#xaf;" 
d="M89 605v109h303v-109h-303z" />
    <glyph glyph-name="degree" unicode="&#xb0;" horiz-adv-x="350" 
d="M175 449q-61 0 -100.5 42.5t-39.5 109.5q0 66 39.5 109t100.5 43t100 -42t39 -109q0 -66 -39 -109.5t-100 -43.5zM175 521q26 0 41.5 21.5t15.5 59.5t-15.5 59t-41.5 21t-41.5 -21t-15.5 -59t15.5 -59.5t41.5 -21.5z" />
    <glyph glyph-name="plusminus" unicode="&#xb1;" horiz-adv-x="841" 
d="M91 0v424h-76v109h76v49q0 74 35.5 117t125.5 43q58 0 70 -4v-109q-18 3 -30 3q-55 0 -55 -57v-42h128v49q0 160 161 160q58 0 70 -4v-109q-18 3 -30 3q-55 0 -55 -57v-42h81v-109h-81v-424h-146v424h-128v-424h-146zM639 0v740h147v-740h-147z" />
    <glyph glyph-name="twosuperior" unicode="&#xb2;" horiz-adv-x="394" 
d="M36 272v25q0 56 20 98.5t48.5 67.5t57.5 45.5t49 45.5t20 55q0 34 -33 34t-65 -73l-98 42q52 134 170 134q68 0 104 -35.5t36 -99.5q0 -38 -16.5 -70t-41 -52.5t-49 -38.5t-43.5 -37t-22 -39h173v-102h-310z" />
    <glyph glyph-name="threesuperior" unicode="&#xb3;" horiz-adv-x="394" 
d="M194 265q-118 0 -168 120l86 46q29 -68 79 -68q26 0 41 14t15 38q0 37 -20.5 52t-64.5 15h-21v68h25q71 0 71 56q0 17 -11 28.5t-30 11.5q-41 0 -79 -54l-78 55q66 99 164 99q66 0 105 -34t39 -90q0 -70 -63 -101q73 -31 73 -111q0 -68 -45 -106.5t-118 -38.5z" />
    <glyph glyph-name="acute" unicode="&#xb4;" 
d="M168 587l80 166h145l-124 -166h-101z" />
    <glyph glyph-name="mu" unicode="&#xb5;" horiz-adv-x="535" 
d="M49 -200v733h148v-358q0 -63 48 -63q44 0 92 43v378h148v-533h-148v73q-46 -61 -114 -74q-17 -2 -26 6v-205h-148z" />
    <glyph glyph-name="paragraph" unicode="&#xb6;" horiz-adv-x="580" 
d="M242 -200v523q-99 2 -153.5 55.5t-54.5 151.5q0 91 53.5 150.5t143.5 59.5h303v-940h-113v822h-66v-822h-113z" />
    <glyph glyph-name="periodcentered" unicode="&#xb7;" horiz-adv-x="268" 
d="M50 224v152h168v-152h-168z" />
    <glyph glyph-name="cedilla" unicode="&#xb8;" 
d="M247 -210q-79 0 -135 34l29 55q42 -27 99 -27q48 0 48 32q0 25 -29 25q-23 0 -40 -16l-41 19l29 94h63l-15 -55q21 14 55 14q29 0 48.5 -18t19.5 -53q0 -45 -37 -74.5t-94 -29.5z" />
    <glyph glyph-name="onesuperior" unicode="&#xb9;" horiz-adv-x="338" 
d="M51 273v101h67v246q-22 -11 -66 -11v102q52 1 79 28h107v-365h59v-101h-246z" />
    <glyph glyph-name="ordmasculine" unicode="&#xba;" horiz-adv-x="402" 
d="M201 364q-70 0 -118 48.5t-48 146.5t47.5 146.5t118.5 48.5q70 0 118 -48.5t48 -146.5t-48 -146.5t-118 -48.5zM201 444q60 0 60 115q0 111 -60 111t-60 -111q0 -115 60 -115z" />
    <glyph glyph-name="guillemotright" unicode="&#xbb;" horiz-adv-x="540" 
d="M249 0l129 265l-129 265h138l134 -265l-134 -265h-138zM23 0l130 265l-130 265h139l134 -265l-134 -265h-139z" />
    <glyph glyph-name="onequarter" unicode="&#xbc;" horiz-adv-x="888" 
d="M51 273v101h67v246q-22 -11 -66 -11v102q52 1 79 28h107v-365h59v-101h-246zM210 0l375 740h122l-375 -740h-122zM689 0v95h-178v78l173 293h117v-277h60v-94h-60v-95h-112zM615 186h76v130z" />
    <glyph glyph-name="onehalf" unicode="&#xbd;" horiz-adv-x="928" 
d="M51 273v101h67v246q-22 -11 -66 -11v102q52 1 79 28h107v-365h59v-101h-246zM210 0l375 740h122l-375 -740h-122zM570 0v25q0 57 20 99.5t48.5 67.5t57 45.5t48.5 45.5t20 55q0 33 -33 33t-65 -72l-98 42q55 134 170 134q68 0 104 -35.5t36 -99.5q0 -39 -16.5 -70.5
t-41 -52.5t-49 -39t-43.5 -37t-22 -39h173v-102h-309z" />
    <glyph glyph-name="threequarters" unicode="&#xbe;" horiz-adv-x="915" 
d="M194 265q-118 0 -168 120l86 46q29 -68 79 -68q26 0 41 14t15 38q0 37 -20.5 52t-64.5 15h-21v68h25q71 0 71 56q0 17 -11 28.5t-30 11.5q-41 0 -79 -54l-78 55q66 99 164 99q66 0 105 -34t39 -90q0 -70 -63 -101q73 -31 73 -111q0 -68 -45 -106.5t-118 -38.5zM236 0
l376 740h122l-376 -740h-122zM715 0v95h-177v78l173 293h117v-277h60v-94h-60v-95h-113zM642 186h76v130z" />
    <glyph glyph-name="questiondown" unicode="&#xbf;" horiz-adv-x="501" 
d="M185 598v142h161v-142h-161zM230 -14q-96 0 -147.5 49t-51.5 124q0 44 16 80.5t30.5 52.5t46.5 47q50 50 64 81.5t14 100.5h125q2 -22 2 -60q0 -40 -16 -75.5t-31.5 -54t-46.5 -48.5q-32 -30 -47.5 -54.5t-15.5 -55.5t18 -48t50 -17q66 0 108 98l122 -45
q-31 -82 -91.5 -128.5t-148.5 -46.5z" />
    <glyph glyph-name="Agrave" unicode="&#xc0;" horiz-adv-x="602" 
d="M194 156l-41 -156h-142l217 743h146l217 -743h-153l-40 156h-204zM367 274l-19 75q-43 168 -50 202h-2q-7 -37 -51 -201l-20 -76h142zM264 785l-124 166h146l80 -166h-102z" />
    <glyph glyph-name="Aacute" unicode="&#xc1;" horiz-adv-x="602" 
d="M194 156l-41 -156h-142l217 743h146l217 -743h-153l-40 156h-204zM367 274l-19 75q-43 168 -50 202h-2q-7 -37 -51 -201l-20 -76h142zM236 785l80 166h145l-124 -166h-101z" />
    <glyph glyph-name="Acircumflex" unicode="&#xc2;" horiz-adv-x="602" 
d="M194 156l-41 -156h-142l217 743h146l217 -743h-153l-40 156h-204zM367 274l-19 75q-43 168 -50 202h-2q-7 -37 -51 -201l-20 -76h142zM141 782l110 166h99l109 -166h-85l-74 70l-74 -70h-85z" />
    <glyph glyph-name="Atilde" unicode="&#xc3;" horiz-adv-x="602" 
d="M194 156l-41 -156h-142l217 743h146l217 -743h-153l-40 156h-204zM367 274l-19 75q-43 168 -50 202h-2q-7 -37 -51 -201l-20 -76h142zM369 773q-36 0 -75.5 28t-54.5 28q-36 0 -36 -54h-77q0 159 106 159q37 0 76.5 -28t54.5 -28q35 0 35 54h77q0 -159 -106 -159z" />
    <glyph glyph-name="Adieresis" unicode="&#xc4;" horiz-adv-x="602" 
d="M194 156l-41 -156h-142l217 743h146l217 -743h-153l-40 156h-204zM367 274l-19 75q-43 168 -50 202h-2q-7 -37 -51 -201l-20 -76h142zM334 782v138h124v-138h-124zM143 782v138h126v-138h-126z" />
    <glyph glyph-name="Aring" unicode="&#xc5;" horiz-adv-x="602" 
d="M194 156l-41 -156h-142l212 726q-24 30 -24 74q0 47 28.5 78t73.5 31t73 -31t28 -78q0 -43 -23 -74l212 -726h-153l-40 156h-204zM301 748q17 0 26.5 14.5t9.5 36.5q0 21 -9.5 35.5t-26.5 14.5q-18 0 -27.5 -14.5t-9.5 -35.5q0 -22 9.5 -36.5t27.5 -14.5zM367 274l-19 75
q-43 168 -50 202h-2q-7 -37 -51 -201l-20 -76h142z" />
    <glyph glyph-name="AE" unicode="&#xc6;" horiz-adv-x="885" 
d="M10 0l335 740h500v-128h-272v-167h195v-121h-195v-199h285v-125h-436v206h-172l-91 -206h-149zM297 315h125v279z" />
    <glyph glyph-name="Ccedilla" unicode="&#xc7;" horiz-adv-x="605" 
d="M264 -9q-110 17 -171 111.5t-61 268.5q0 191 78 287t210 96q115 0 175 -66t77 -189l-143 -25q-13 79 -38.5 114.5t-75.5 35.5q-130 0 -130 -253q0 -259 132 -259q51 0 78.5 37t41.5 123l143 -23q-45 -255 -253 -262l-10 -36q21 14 55 14q29 0 48.5 -18t19.5 -53
q0 -45 -37 -74.5t-94 -29.5q-79 0 -135 34l29 55q42 -27 99 -27q48 0 48 32q0 25 -29 25q-23 0 -40 -16l-41 19z" />
    <glyph glyph-name="Egrave" unicode="&#xc8;" horiz-adv-x="526" 
d="M61 0v740h424v-128h-272v-167h196v-121h-196v-199h286v-125h-438zM234 785l-124 166h146l80 -166h-102z" />
    <glyph glyph-name="Eacute" unicode="&#xc9;" horiz-adv-x="526" 
d="M61 0v740h424v-128h-272v-167h196v-121h-196v-199h286v-125h-438zM193 785l80 166h145l-124 -166h-101z" />
    <glyph glyph-name="Ecircumflex" unicode="&#xca;" horiz-adv-x="526" 
d="M61 0v740h424v-128h-272v-167h196v-121h-196v-199h286v-125h-438zM113 785l110 166h99l109 -166h-85l-74 70l-74 -70h-85z" />
    <glyph glyph-name="Edieresis" unicode="&#xcb;" horiz-adv-x="526" 
d="M61 0v740h424v-128h-272v-167h196v-121h-196v-199h286v-125h-438zM306 782v138h124v-138h-124zM115 782v138h126v-138h-126z" />
    <glyph glyph-name="Igrave" unicode="&#xcc;" horiz-adv-x="285" 
d="M67 0v740h152v-740h-152zM114 785l-124 166h146l80 -166h-102z" />
    <glyph glyph-name="Iacute" unicode="&#xcd;" horiz-adv-x="285" 
d="M67 0v740h152v-740h-152zM70 785l80 166h145l-124 -166h-101z" />
    <glyph glyph-name="Icircumflex" unicode="&#xce;" horiz-adv-x="285" 
d="M67 0v740h152v-740h-152zM-17 785l110 166h99l109 -166h-85l-74 70l-74 -70h-85z" />
    <glyph glyph-name="Idieresis" unicode="&#xcf;" horiz-adv-x="285" 
d="M67 0v740h152v-740h-152zM176 782v138h124v-138h-124zM-15 782v138h126v-138h-126z" />
    <glyph glyph-name="Eth" unicode="&#xd0;" horiz-adv-x="626" 
d="M61 325h-52v117h52v298h194q78 0 137.5 -18t106 -58.5t71 -114t24.5 -177.5q0 -105 -25 -179t-72 -115.5t-106 -59.5t-136 -18h-194v325zM208 442h118v-117h-118v-198h61q96 0 134.5 55t38.5 190q0 131 -39 185.5t-135 54.5h-60v-170z" />
    <glyph glyph-name="Ntilde" unicode="&#xd1;" horiz-adv-x="652" 
d="M61 0v740h157l170 -332q35 -68 60 -127h2v459h138v-740h-141l-192 359q-32 61 -54 110h-2v-469h-138zM394 773q-36 0 -75.5 28t-54.5 28q-36 0 -36 -54h-77q0 159 106 159q37 0 76.5 -28t54.5 -28q35 0 35 54h77q0 -159 -106 -159z" />
    <glyph glyph-name="Ograve" unicode="&#xd2;" horiz-adv-x="652" 
d="M326 -14q-128 0 -211 97.5t-83 286.5t83 286.5t211 97.5q127 0 210 -97.5t83 -286.5t-83 -286.5t-210 -97.5zM326 112q68 0 104 67t36 191q0 123 -36 188.5t-104 65.5q-69 0 -105 -65.5t-36 -188.5q0 -124 36 -191t105 -67zM297 785l-124 166h146l80 -166h-102z" />
    <glyph glyph-name="Oacute" unicode="&#xd3;" horiz-adv-x="652" 
d="M326 -14q-128 0 -211 97.5t-83 286.5t83 286.5t211 97.5q127 0 210 -97.5t83 -286.5t-83 -286.5t-210 -97.5zM326 112q68 0 104 67t36 191q0 123 -36 188.5t-104 65.5q-69 0 -105 -65.5t-36 -188.5q0 -124 36 -191t105 -67zM253 785l80 166h145l-124 -166h-101z" />
    <glyph glyph-name="Ocircumflex" unicode="&#xd4;" horiz-adv-x="652" 
d="M326 -14q-128 0 -211 97.5t-83 286.5t83 286.5t211 97.5q127 0 210 -97.5t83 -286.5t-83 -286.5t-210 -97.5zM326 112q68 0 104 67t36 191q0 123 -36 188.5t-104 65.5q-69 0 -105 -65.5t-36 -188.5q0 -124 36 -191t105 -67zM166 785l110 166h99l109 -166h-85l-74 70
l-74 -70h-85z" />
    <glyph glyph-name="Otilde" unicode="&#xd5;" horiz-adv-x="652" 
d="M326 -14q-128 0 -211 97.5t-83 286.5t83 286.5t211 97.5q127 0 210 -97.5t83 -286.5t-83 -286.5t-210 -97.5zM326 112q68 0 104 67t36 191q0 123 -36 188.5t-104 65.5q-69 0 -105 -65.5t-36 -188.5q0 -124 36 -191t105 -67zM394 773q-36 0 -75.5 28t-54.5 28
q-36 0 -36 -54h-77q0 159 106 159q37 0 76.5 -28t54.5 -28q35 0 35 54h77q0 -159 -106 -159z" />
    <glyph glyph-name="Odieresis" unicode="&#xd6;" horiz-adv-x="652" 
d="M326 -14q-128 0 -211 97.5t-83 286.5t83 286.5t211 97.5q127 0 210 -97.5t83 -286.5t-83 -286.5t-210 -97.5zM326 112q68 0 104 67t36 191q0 123 -36 188.5t-104 65.5q-69 0 -105 -65.5t-36 -188.5q0 -124 36 -191t105 -67zM359 782v138h124v-138h-124zM168 782v138h126
v-138h-126z" />
    <glyph glyph-name="multiply" unicode="&#xd7;" horiz-adv-x="565" 
d="M136 115l-81 81l146 145l-146 146l81 81l146 -146l146 146l81 -81l-146 -146l146 -145l-81 -81l-146 145z" />
    <glyph glyph-name="Oslash" unicode="&#xd8;" horiz-adv-x="652" 
d="M551 636q68 -98 68 -266q0 -189 -83 -286.5t-210 -97.5q-93 0 -161 50l-55 -84l-79 51l68 102q-67 99 -67 265q0 189 83 286.5t211 97.5q89 0 158 -48l58 82l77 -50zM195 244l217 343q-35 39 -86 39q-69 0 -106.5 -66.5t-37.5 -189.5q0 -74 13 -126zM456 496l-220 -343
q37 -43 90 -43q68 0 105.5 68.5t37.5 191.5q0 68 -13 126z" />
    <glyph glyph-name="Ugrave" unicode="&#xd9;" horiz-adv-x="611" 
d="M307 -12q-255 0 -255 268v484h152v-475q0 -78 24.5 -113.5t80.5 -35.5t80.5 35.5t24.5 112.5v476h145v-483q0 -269 -252 -269zM277 785l-124 166h146l80 -166h-102z" />
    <glyph glyph-name="Uacute" unicode="&#xda;" horiz-adv-x="611" 
d="M307 -12q-255 0 -255 268v484h152v-475q0 -78 24.5 -113.5t80.5 -35.5t80.5 35.5t24.5 112.5v476h145v-483q0 -269 -252 -269zM233 785l80 166h145l-124 -166h-101z" />
    <glyph glyph-name="Ucircumflex" unicode="&#xdb;" horiz-adv-x="611" 
d="M307 -12q-255 0 -255 268v484h152v-475q0 -78 24.5 -113.5t80.5 -35.5t80.5 35.5t24.5 112.5v476h145v-483q0 -269 -252 -269zM148 785l110 166h99l109 -166h-85l-74 70l-74 -70h-85z" />
    <glyph glyph-name="Udieresis" unicode="&#xdc;" horiz-adv-x="611" 
d="M307 -12q-255 0 -255 268v484h152v-475q0 -78 24.5 -113.5t80.5 -35.5t80.5 35.5t24.5 112.5v476h145v-483q0 -269 -252 -269zM339 782v138h124v-138h-124zM148 782v138h126v-138h-126z" />
    <glyph glyph-name="Yacute" unicode="&#xdd;" horiz-adv-x="575" 
d="M211 0v290l-208 450h155l132 -312h2l132 312h148l-209 -449v-291h-152zM215 785l80 166h145l-124 -166h-101z" />
    <glyph glyph-name="Thorn" unicode="&#xde;" horiz-adv-x="573" 
d="M61 0v740h150v-119h74q115 0 186.5 -55.5t71.5 -183.5q0 -70 -22 -119.5t-61 -75.5t-82 -37t-95 -11h-72v-139h-150zM211 259h76q59 0 85 29t26 91q0 60 -26 87.5t-86 27.5h-75v-235z" />
    <glyph glyph-name="germandbls" unicode="&#xdf;" horiz-adv-x="584" 
d="M369 -10q-83 0 -143 37l48 101q39 -23 79 -23q34 0 53 25.5t19 74.5q0 66 -39 96.5t-128 35.5v97q111 0 111 104q0 36 -21 58.5t-59 22.5q-89 0 -89 -112v-507h-147v503q0 117 63.5 177t173.5 60q101 0 159 -47t58 -134q0 -61 -31.5 -103t-80.5 -58q81 -14 125 -65
t44 -127q0 -97 -51.5 -156.5t-143.5 -59.5z" />
    <glyph glyph-name="agrave" unicode="&#xe0;" horiz-adv-x="497" 
d="M151 -6q-59 0 -94.5 34t-35.5 105q0 160 287 212v22q0 31 -12.5 46t-41.5 15q-68 0 -147 -58l-67 88q99 86 242 86q88 0 128.5 -43t40.5 -134v-237q0 -95 13 -130h-146q-10 33 -10 72q-61 -78 -157 -78zM214 107q50 0 94 42v118q-77 -17 -110.5 -43t-33.5 -64
q0 -26 13.5 -39.5t36.5 -13.5zM220 587l-124 166h146l80 -166h-102z" />
    <glyph glyph-name="aacute" unicode="&#xe1;" horiz-adv-x="497" 
d="M151 -6q-59 0 -94.5 34t-35.5 105q0 160 287 212v22q0 31 -12.5 46t-41.5 15q-68 0 -147 -58l-67 88q99 86 242 86q88 0 128.5 -43t40.5 -134v-237q0 -95 13 -130h-146q-10 33 -10 72q-61 -78 -157 -78zM214 107q50 0 94 42v118q-77 -17 -110.5 -43t-33.5 -64
q0 -26 13.5 -39.5t36.5 -13.5zM176 587l80 166h145l-124 -166h-101z" />
    <glyph glyph-name="acircumflex" unicode="&#xe2;" horiz-adv-x="497" 
d="M151 -6q-59 0 -94.5 34t-35.5 105q0 160 287 212v22q0 31 -12.5 46t-41.5 15q-68 0 -147 -58l-67 88q99 86 242 86q88 0 128.5 -43t40.5 -134v-237q0 -95 13 -130h-146q-10 33 -10 72q-61 -78 -157 -78zM214 107q50 0 94 42v118q-77 -17 -110.5 -43t-33.5 -64
q0 -26 13.5 -39.5t36.5 -13.5zM89 587l110 166h99l109 -166h-85l-74 70l-74 -70h-85z" />
    <glyph glyph-name="atilde" unicode="&#xe3;" horiz-adv-x="497" 
d="M151 -6q-59 0 -94.5 34t-35.5 105q0 160 287 212v22q0 31 -12.5 46t-41.5 15q-68 0 -147 -58l-67 88q99 86 242 86q88 0 128.5 -43t40.5 -134v-237q0 -95 13 -130h-146q-10 33 -10 72q-61 -78 -157 -78zM214 107q50 0 94 42v118q-77 -17 -110.5 -43t-33.5 -64
q0 -26 13.5 -39.5t36.5 -13.5zM317 575q-36 0 -75.5 28t-54.5 28q-36 0 -36 -54h-77q0 159 106 159q37 0 76.5 -28t54.5 -28q35 0 35 54h77q0 -159 -106 -159z" />
    <glyph glyph-name="adieresis" unicode="&#xe4;" horiz-adv-x="497" 
d="M151 -6q-59 0 -94.5 34t-35.5 105q0 160 287 212v22q0 31 -12.5 46t-41.5 15q-68 0 -147 -58l-67 88q99 86 242 86q88 0 128.5 -43t40.5 -134v-237q0 -95 13 -130h-146q-10 33 -10 72q-61 -78 -157 -78zM214 107q50 0 94 42v118q-77 -17 -110.5 -43t-33.5 -64
q0 -26 13.5 -39.5t36.5 -13.5zM282 584v138h124v-138h-124zM91 584v138h126v-138h-126z" />
    <glyph glyph-name="aring" unicode="&#xe5;" horiz-adv-x="497" 
d="M151 -6q-59 0 -94.5 34t-35.5 105q0 160 287 212v22q0 31 -12.5 46t-41.5 15q-68 0 -147 -58l-67 88q99 86 242 86q88 0 128.5 -43t40.5 -134v-237q0 -95 13 -130h-146q-10 33 -10 72q-61 -78 -157 -78zM214 107q50 0 94 42v118q-77 -17 -110.5 -43t-33.5 -64
q0 -26 13.5 -39.5t36.5 -13.5zM249 572q-45 0 -73.5 31.5t-28.5 79.5q0 47 28.5 78t73.5 31t73 -31t28 -78q0 -48 -28 -79.5t-73 -31.5zM249 631q17 0 26.5 14.5t9.5 36.5q0 21 -9.5 35.5t-26.5 14.5q-18 0 -27.5 -14.5t-9.5 -35.5q0 -22 9.5 -36.5t27.5 -14.5z" />
    <glyph glyph-name="ae" unicode="&#xe6;" horiz-adv-x="772" 
d="M345 95q-82 -102 -194 -102q-59 0 -94.5 34t-35.5 105q0 161 287 213v22q0 31 -12.5 46t-41.5 15q-68 0 -147 -58l-67 88q99 86 242 86q90 0 121 -49q60 49 130 49q97 0 155.5 -70.5t58.5 -216.5v-27h-299q9 -131 96 -131q36 0 66.5 20t48.5 49l86 -69
q-76 -110 -207 -110q-134 0 -193 106zM449 314h164q-7 117 -80 117t-84 -117zM308 266q-144 -32 -144 -107q0 -26 13.5 -39.5t36.5 -13.5q55 0 106 53q-12 46 -12 107z" />
    <glyph glyph-name="ccedilla" unicode="&#xe7;" 
d="M202 -6q-79 16 -128 84t-49 188q0 141 68 209.5t165 68.5q91 0 137.5 -46t66.5 -129l-131 -31q-11 48 -28 69.5t-47 21.5q-83 0 -83 -163q0 -167 82 -167q62 0 82 97l127 -31q-42 -169 -200 -176l-10 -38q21 14 55 14q29 0 48.5 -18t19.5 -53q0 -45 -37 -74.5t-94 -29.5
q-79 0 -135 34l29 55q42 -27 99 -27q48 0 48 32q0 25 -29 25q-23 0 -40 -16l-41 19z" />
    <glyph glyph-name="egrave" unicode="&#xe8;" horiz-adv-x="494" 
d="M259 -11q-103 0 -168.5 68.5t-65.5 208.5q0 73 20.5 128.5t54 87t73 47t82.5 15.5q96 0 155 -70.5t59 -216.5v-27h-299q7 -131 96 -131q36 0 66.5 20t48.5 49l86 -69q-76 -110 -208 -110zM171 314h164q-7 117 -80 117t-84 -117zM218 587l-124 166h146l80 -166h-102z" />
    <glyph glyph-name="eacute" unicode="&#xe9;" horiz-adv-x="494" 
d="M259 -11q-103 0 -168.5 68.5t-65.5 208.5q0 73 20.5 128.5t54 87t73 47t82.5 15.5q96 0 155 -70.5t59 -216.5v-27h-299q7 -131 96 -131q36 0 66.5 20t48.5 49l86 -69q-76 -110 -208 -110zM171 314h164q-7 117 -80 117t-84 -117zM174 587l80 166h145l-124 -166h-101z" />
    <glyph glyph-name="ecircumflex" unicode="&#xea;" horiz-adv-x="494" 
d="M259 -11q-103 0 -168.5 68.5t-65.5 208.5q0 73 20.5 128.5t54 87t73 47t82.5 15.5q96 0 155 -70.5t59 -216.5v-27h-299q7 -131 96 -131q36 0 66.5 20t48.5 49l86 -69q-76 -110 -208 -110zM171 314h164q-7 117 -80 117t-84 -117zM87 587l110 166h99l109 -166h-85l-74 70
l-74 -70h-85z" />
    <glyph glyph-name="edieresis" unicode="&#xeb;" horiz-adv-x="494" 
d="M259 -11q-103 0 -168.5 68.5t-65.5 208.5q0 73 20.5 128.5t54 87t73 47t82.5 15.5q96 0 155 -70.5t59 -216.5v-27h-299q7 -131 96 -131q36 0 66.5 20t48.5 49l86 -69q-76 -110 -208 -110zM171 314h164q-7 117 -80 117t-84 -117zM280 584v138h124v-138h-124zM89 584v138
h126v-138h-126z" />
    <glyph glyph-name="igrave" unicode="&#xec;" horiz-adv-x="258" 
d="M55 0v533h148v-533h-148zM92 587l-124 166h146l80 -166h-102z" />
    <glyph glyph-name="iacute" unicode="&#xed;" horiz-adv-x="258" 
d="M55 0v533h148v-533h-148zM63 587l80 166h145l-124 -166h-101z" />
    <glyph glyph-name="icircumflex" unicode="&#xee;" horiz-adv-x="258" 
d="M55 0v533h148v-533h-148zM-31 587l110 166h99l109 -166h-85l-74 70l-74 -70h-85z" />
    <glyph glyph-name="idieresis" unicode="&#xef;" horiz-adv-x="258" 
d="M55 0v533h148v-533h-148zM162 584v138h124v-138h-124zM-29 584v138h126v-138h-126z" />
    <glyph glyph-name="eth" unicode="&#xf0;" horiz-adv-x="519" 
d="M301 569l-64 -37l-41 71l53 31q-26 28 -54 50l77 80q48 -34 81 -70l63 36l41 -71l-52 -30q88 -133 88 -350q0 -141 -62 -215.5t-170 -74.5t-171.5 68.5t-63.5 189.5q0 122 56.5 186.5t148.5 64.5q35 0 70 -17t55 -47q-13 69 -55 135zM260 101q88 0 88 148q0 73 -23 111
t-65 38q-88 0 -88 -149q0 -148 88 -148z" />
    <glyph glyph-name="ntilde" unicode="&#xf1;" horiz-adv-x="532" 
d="M50 0v533h148v-74q23 33 65 59t94 26q129 0 129 -140v-404h-147v357q0 62 -48 62q-41 0 -93 -48v-371h-148zM334 575q-36 0 -75.5 28t-54.5 28q-36 0 -36 -54h-77q0 159 106 159q37 0 76.5 -28t54.5 -28q35 0 35 54h77q0 -159 -106 -159z" />
    <glyph glyph-name="ograve" unicode="&#xf2;" horiz-adv-x="520" 
d="M260 -11q-100 0 -167.5 69t-67.5 208q0 141 67 209.5t168 68.5q100 0 167.5 -69t67.5 -209q0 -139 -67.5 -208t-167.5 -69zM260 102q87 0 87 164q0 161 -87 161t-87 -161q0 -164 87 -164zM231 587l-124 166h146l80 -166h-102z" />
    <glyph glyph-name="oacute" unicode="&#xf3;" horiz-adv-x="520" 
d="M260 -11q-100 0 -167.5 69t-67.5 208q0 141 67 209.5t168 68.5q100 0 167.5 -69t67.5 -209q0 -139 -67.5 -208t-167.5 -69zM260 102q87 0 87 164q0 161 -87 161t-87 -161q0 -164 87 -164zM187 587l80 166h145l-124 -166h-101z" />
    <glyph glyph-name="ocircumflex" unicode="&#xf4;" horiz-adv-x="520" 
d="M260 -11q-100 0 -167.5 69t-67.5 208q0 141 67 209.5t168 68.5q100 0 167.5 -69t67.5 -209q0 -139 -67.5 -208t-167.5 -69zM260 102q87 0 87 164q0 161 -87 161t-87 -161q0 -164 87 -164zM100 587l110 166h99l109 -166h-85l-74 70l-74 -70h-85z" />
    <glyph glyph-name="otilde" unicode="&#xf5;" horiz-adv-x="520" 
d="M260 -11q-100 0 -167.5 69t-67.5 208q0 141 67 209.5t168 68.5q100 0 167.5 -69t67.5 -209q0 -139 -67.5 -208t-167.5 -69zM260 102q87 0 87 164q0 161 -87 161t-87 -161q0 -164 87 -164zM328 575q-36 0 -75.5 28t-54.5 28q-36 0 -36 -54h-77q0 159 106 159
q37 0 76.5 -28t54.5 -28q35 0 35 54h77q0 -159 -106 -159z" />
    <glyph glyph-name="odieresis" unicode="&#xf6;" horiz-adv-x="520" 
d="M260 -11q-100 0 -167.5 69t-67.5 208q0 141 67 209.5t168 68.5q100 0 167.5 -69t67.5 -209q0 -139 -67.5 -208t-167.5 -69zM260 102q87 0 87 164q0 161 -87 161t-87 -161q0 -164 87 -164zM293 584v138h124v-138h-124zM102 584v138h126v-138h-126z" />
    <glyph glyph-name="divide" unicode="&#xf7;" horiz-adv-x="565" 
d="M219 469v121h126v-121h-126zM54 280v122h457v-122h-457zM219 91v122h126v-122h-126z" />
    <glyph glyph-name="oslash" unicode="&#xf8;" horiz-adv-x="520" 
d="M440 461q55 -73 55 -195q0 -139 -67.5 -208t-167.5 -69q-68 0 -121 31l-44 -63l-65 43l49 74q-54 74 -54 192q0 141 67 209.5t168 68.5q66 0 118 -29l45 63l67 -42zM171 203l141 207q-22 19 -52 19q-93 0 -93 -163q0 -38 4 -63zM347 333l-143 -210q21 -24 56 -24
q92 0 92 167q0 34 -5 67z" />
    <glyph glyph-name="ugrave" unicode="&#xf9;" horiz-adv-x="532" 
d="M175 -11q-129 0 -129 140v404h147v-361q0 -61 49 -61q44 0 92 48v374h148v-533h-148v73q-25 -34 -66 -59t-93 -25zM237 587l-124 166h146l80 -166h-102z" />
    <glyph glyph-name="uacute" unicode="&#xfa;" horiz-adv-x="532" 
d="M175 -11q-129 0 -129 140v404h147v-361q0 -61 49 -61q44 0 92 48v374h148v-533h-148v73q-25 -34 -66 -59t-93 -25zM193 587l80 166h145l-124 -166h-101z" />
    <glyph glyph-name="ucircumflex" unicode="&#xfb;" horiz-adv-x="532" 
d="M175 -11q-129 0 -129 140v404h147v-361q0 -61 49 -61q44 0 92 48v374h148v-533h-148v73q-25 -34 -66 -59t-93 -25zM105 587l110 166h99l109 -166h-85l-74 70l-74 -70h-85z" />
    <glyph glyph-name="udieresis" unicode="&#xfc;" horiz-adv-x="532" 
d="M175 -11q-129 0 -129 140v404h147v-361q0 -61 49 -61q44 0 92 48v374h148v-533h-148v73q-25 -34 -66 -59t-93 -25zM297 584v138h124v-138h-124zM106 584v138h126v-138h-126z" />
    <glyph glyph-name="yacute" unicode="&#xfd;" 
d="M117 -202q-76 0 -125 15l28 116q47 -10 78 -10q26 0 39.5 11t21.5 38l9 26l-169 539h154l53 -207q25 -102 37 -165h2q13 68 39 168l53 204h142l-185 -585q-25 -78 -64.5 -114t-112.5 -36zM168 587l80 166h145l-124 -166h-101z" />
    <glyph glyph-name="thorn" unicode="&#xfe;" horiz-adv-x="534" 
d="M50 -200v940h148v-278q55 82 138 82q80 0 126 -69.5t46 -207.5t-46.5 -206.5t-127.5 -68.5q-86 0 -136 69v-261h-148zM281 107q79 0 79 159q0 79 -19 116t-61 37q-38 0 -82 -48v-219q43 -45 83 -45z" />
    <glyph glyph-name="ydieresis" unicode="&#xff;" 
d="M117 -202q-76 0 -125 15l28 116q47 -10 78 -10q26 0 39.5 11t21.5 38l9 26l-169 539h154l53 -207q25 -102 37 -165h2q13 68 39 168l53 204h142l-185 -585q-25 -78 -64.5 -114t-112.5 -36zM276 584v138h124v-138h-124zM85 584v138h126v-138h-126z" />
    <glyph glyph-name="dotlessi" unicode="&#x131;" horiz-adv-x="258" 
d="M55 0v533h148v-533h-148z" />
    <glyph glyph-name="Lslash" unicode="&#x141;" horiz-adv-x="512" 
d="M61 0v307l-52 -19v118l52 19v315h152v-268l95 36v-119l-95 -35v-229h278v-125h-430z" />
    <glyph glyph-name="lslash" unicode="&#x142;" horiz-adv-x="299" 
d="M76 0v286l-54 -20v113l54 20v341h147v-296l53 20v-113l-53 -20v-331h-147z" />
    <glyph glyph-name="OE" unicode="&#x152;" horiz-adv-x="931" 
d="M482 675v65h408v-128h-272v-167h196v-121h-196v-199h286v-125h-422v64q-50 -78 -156 -78q-128 0 -211 97.5t-83 286.5t83 286.5t211 97.5q104 0 156 -79zM326 112q68 0 104 67t36 191q0 123 -36 188.5t-104 65.5q-69 0 -105 -65.5t-36 -188.5q0 -124 36 -191t105 -67z
" />
    <glyph glyph-name="oe" unicode="&#x153;" horiz-adv-x="812" 
d="M418 472q60 72 154 72q97 0 156 -70.5t59 -216.5v-27h-300q9 -131 97 -131q35 0 65.5 20t48.5 49l87 -69q-76 -110 -208 -110q-102 0 -160 69q-60 -69 -157 -69q-100 0 -167.5 69t-67.5 208q0 141 67 209.5t168 68.5q99 0 158 -72zM488 314h164q-7 117 -80 117
q-72 0 -84 -117zM260 102q87 0 87 164q0 161 -87 161t-87 -161q0 -164 87 -164z" />
    <glyph glyph-name="Scaron" unicode="&#x160;" horiz-adv-x="588" 
d="M305 -13q-193 0 -278 176l123 62q58 -117 155 -117q47 0 72.5 23t25.5 61q0 22 -9.5 39.5t-31 32t-39.5 24t-51 23.5q-42 18 -61 26.5t-55 31t-53.5 44t-32 57t-14.5 78.5q0 91 66.5 148.5t168.5 57.5q170 0 249 -165l-118 -64q-52 104 -134 104q-39 0 -61 -21t-22 -53
q0 -40 30 -64.5t92 -52.5q101 -44 137 -70q88 -64 88 -170q0 -89 -65.5 -150t-181.5 -61zM243 786l-109 166h86l73 -71l74 71h85l-109 -166h-100z" />
    <glyph glyph-name="scaron" unicode="&#x161;" horiz-adv-x="464" 
d="M233 -12q-143 0 -224 92l77 83q32 -33 72.5 -52.5t76.5 -19.5q70 0 70 49q0 23 -20 38.5t-50 23.5t-64.5 21t-64.5 28.5t-50 49.5t-20 81q0 77 56.5 119.5t140.5 42.5q54 0 107 -22.5t88 -62.5l-77 -82q-63 60 -119 60q-58 0 -58 -46q0 -26 27.5 -42.5t67 -27.5t79 -26.5
t67 -51.5t27.5 -92q0 -77 -60.5 -120t-148.5 -43zM181 588l-109 166h86l73 -71l74 71h85l-109 -166h-100z" />
    <glyph glyph-name="Ydieresis" unicode="&#x178;" horiz-adv-x="575" 
d="M211 0v290l-208 450h155l132 -312h2l132 312h148l-209 -449v-291h-152zM321 782v138h124v-138h-124zM130 782v138h126v-138h-126z" />
    <glyph glyph-name="Zcaron" unicode="&#x17d;" horiz-adv-x="551" 
d="M22 0v110l319 502h-297v128h476v-113l-314 -502h314v-125h-498zM225 786l-109 166h86l73 -71l74 71h85l-109 -166h-100z" />
    <glyph glyph-name="zcaron" unicode="&#x17e;" horiz-adv-x="451" 
d="M22 0v82l220 342h-202v109h377v-86l-220 -341h235v-106h-410zM175 588l-109 166h86l73 -71l74 71h85l-109 -166h-100z" />
    <glyph glyph-name="florin" unicode="&#x192;" horiz-adv-x="383" 
d="M96 337h-75l13 106h76l18 139q10 79 53.5 120t141.5 41q51 0 74 -5l-15 -110q-18 4 -39 4q-30 0 -47.5 -12t-21.5 -46l-17 -131h96l-14 -106h-96l-51 -389q-10 -74 -52 -112t-139 -38q-39 0 -75 4l14 107q14 -3 37 -3q63 0 71 67z" />
    <glyph glyph-name="circumflex" unicode="&#x2c6;" 
d="M81 587l110 166h99l109 -166h-85l-74 70l-74 -70h-85z" />
    <glyph glyph-name="caron" unicode="&#x2c7;" 
d="M190 588l-109 166h86l73 -71l74 71h85l-109 -166h-100z" />
    <glyph glyph-name="breve" unicode="&#x2d8;" 
d="M241 579q-73 0 -111 47t-42 129h82q11 -85 71 -85q61 0 70 85h82q-4 -82 -42 -129t-110 -47z" />
    <glyph glyph-name="dotaccent" unicode="&#x2d9;" 
d="M164 584v128h153v-128h-153z" />
    <glyph glyph-name="ring" unicode="&#x2da;" 
d="M241 572q-45 0 -73.5 31.5t-28.5 79.5q0 47 28.5 78t73.5 31t73 -31t28 -78q0 -48 -28 -79.5t-73 -31.5zM241 631q17 0 26.5 14.5t9.5 36.5q0 21 -9.5 35.5t-26.5 14.5q-18 0 -27.5 -14.5t-9.5 -35.5q0 -22 9.5 -36.5t27.5 -14.5z" />
    <glyph glyph-name="ogonek" unicode="&#x2db;" 
d="M226 -193q-48 0 -74 22t-26 58q0 64 73 114h74q-52 -37 -52 -88q0 -40 39 -40q32 0 71 26l34 -43q-68 -49 -139 -49z" />
    <glyph glyph-name="tilde" unicode="&#x2dc;" 
d="M309 575q-36 0 -75.5 28t-54.5 28q-36 0 -36 -54h-77q0 159 106 159q37 0 76.5 -28t54.5 -28q35 0 35 54h77q0 -159 -106 -159z" />
    <glyph glyph-name="hungarumlaut" unicode="&#x2dd;" 
d="M212 587l91 166h147l-136 -166h-102zM36 587l86 166h148l-132 -166h-102z" />
    <glyph glyph-name="pi" unicode="&#x3c0;" horiz-adv-x="723" 
d="M360 -14q-141 0 -232.5 109.5t-91.5 272.5q0 164 93 275t233 111q141 0 233 -109.5t92 -272.5q0 -164 -93.5 -275t-233.5 -111zM362 51q112 0 182.5 89.5t70.5 227.5t-71.5 229.5t-183.5 91.5t-182 -89.5t-70 -227.5t71.5 -229.5t182.5 -91.5zM240 163v417h137
q142 0 142 -134q0 -137 -146 -137h-40v-146h-93zM333 387h42q27 0 40.5 12.5t13.5 42.5t-13.5 42.5t-41.5 12.5h-41v-110z" />
    <glyph glyph-name="endash" unicode="&#x2013;" horiz-adv-x="580" 
d="M43 247v125h495v-125h-495z" />
    <glyph glyph-name="emdash" unicode="&#x2014;" horiz-adv-x="774" 
d="M41 247v125h692v-125h-692z" />
    <glyph glyph-name="quoteleft" unicode="&#x2018;" horiz-adv-x="248" 
d="M50 469v141l68 130h70l-43 -120h53v-151h-148z" />
    <glyph glyph-name="quoteright" unicode="&#x2019;" horiz-adv-x="248" 
d="M60 469l42 119h-53v152h149v-141l-69 -130h-69z" />
    <glyph glyph-name="quotesinglbase" unicode="&#x201a;" horiz-adv-x="248" 
d="M60 -120l42 120h-53v152h149v-141l-69 -131h-69z" />
    <glyph glyph-name="quotedblleft" unicode="&#x201c;" horiz-adv-x="466" 
d="M268 469v141l69 130h69l-42 -120h53v-151h-149zM50 469v141l68 130h70l-43 -120h53v-151h-148z" />
    <glyph glyph-name="quotedblright" unicode="&#x201d;" horiz-adv-x="466" 
d="M279 469l43 119h-54v152h148v-141l-68 -130h-69zM60 469l42 119h-53v152h149v-141l-69 -130h-69z" />
    <glyph glyph-name="quotedblbase" unicode="&#x201e;" horiz-adv-x="466" 
d="M279 -120l43 120h-54v152h148v-141l-68 -131h-69zM60 -120l42 120h-53v152h149v-141l-69 -131h-69z" />
    <glyph glyph-name="dagger" unicode="&#x2020;" horiz-adv-x="527" 
d="M186 -200l23 576l-182 -13v133l182 -15l-23 259h154l-22 -259l181 15v-133l-181 13l22 -576h-154z" />
    <glyph glyph-name="daggerdbl" unicode="&#x2021;" horiz-adv-x="526" 
d="M186 -200l22 209l-167 -15v129l167 -14l-18 162l18 160l-167 -14v129l167 -15l-22 209h154l-22 -209l167 15v-129l-167 14l18 -160l-18 -162l167 14v-129l-167 15l22 -209h-154z" />
    <glyph glyph-name="bullet" unicode="&#x2022;" horiz-adv-x="463" 
d="M231 222q-55 0 -91.5 36.5t-36.5 91.5t36.5 92t91.5 37t92 -36.5t37 -92.5q0 -55 -37 -91.5t-92 -36.5z" />
    <glyph glyph-name="ellipsis" unicode="&#x2026;" horiz-adv-x="735" 
d="M536 0v152h152v-152h-152zM291 0v152h152v-152h-152zM46 0v152h152v-152h-152z" />
    <glyph glyph-name="perthousand" unicode="&#x2030;" horiz-adv-x="1295" 
d="M197 267q-82 0 -127 61.5t-45 180.5q0 118 45 179t127 61q83 0 127 -61t44 -179q0 -120 -44 -181t-127 -61zM212 0l375 740h122l-375 -740h-122zM1099 -9q-83 0 -127.5 61.5t-44.5 180.5t44.5 180t127.5 61q82 0 126.5 -61t44.5 -180t-44.5 -180.5t-126.5 -61.5zM726 -9
q-82 0 -127 61.5t-45 180.5q0 118 45 179.5t127 61.5q83 0 127 -61t44 -180q0 -120 -44 -181t-127 -61zM197 372q29 0 39.5 31t10.5 106q0 73 -11 103.5t-39 30.5q-29 0 -40 -30.5t-11 -103.5q0 -74 11.5 -105.5t39.5 -31.5zM1099 96q29 0 39.5 31t10.5 106q0 73 -11 103.5
t-39 30.5q-30 0 -40.5 -30t-10.5 -104t11 -105.5t40 -31.5zM726 96q29 0 39.5 31t10.5 106q0 73 -11 103.5t-39 30.5q-29 0 -40 -30.5t-11 -103.5q0 -74 11.5 -105.5t39.5 -31.5z" />
    <glyph glyph-name="guilsinglleft" unicode="&#x2039;" horiz-adv-x="315" 
d="M153 0l-135 265l135 265h138l-130 -265l130 -265h-138z" />
    <glyph glyph-name="guilsinglright" unicode="&#x203a;" horiz-adv-x="315" 
d="M24 0l130 265l-130 265h139l134 -265l-134 -265h-139z" />
    <glyph glyph-name="fraction" unicode="&#x2044;" horiz-adv-x="476" 
d="M-10 0l363 740h132l-363 -740h-132z" />
    <glyph glyph-name="Euro" unicode="&#x20ac;" horiz-adv-x="631" 
d="M103 398h-87v88h94q20 136 85 202t166 66t161.5 -59t75.5 -168l-138 -24q-19 127 -97 127q-86 0 -107 -144h142v-88h-148v-27v-38h148v-88h-142q10 -71 36 -105t74 -34q81 0 104 134l136 -17q-17 -105 -80 -171t-161 -66q-102 0 -167.5 63.5t-85.5 195.5h-96v88h88
q-1 12 -1 38v27z" />
    <glyph glyph-name="trademark" unicode="&#x2122;" horiz-adv-x="788" 
d="M357 315v425h132l64 -281l64 281h132v-425h-96v274l-63 -274h-81l-64 272v-272h-88zM118 315v335h-95v90h288v-90h-95v-335h-98z" />
    <glyph glyph-name="Omega" unicode="&#x2126;" horiz-adv-x="765" 
d="M160 591v32l167 -15l-21 132h153l-22 -132l168 15v-32h31l-15 -167l131 21v-153l-131 22l15 -168h-31v-29l-168 15l22 -132h-153l21 132l-167 -15v29h-31l15 168l-132 -22v153l132 -21l-15 167h31zM528 516l-98 7v-107h106zM335 416v107l-98 -7l-8 -100h106zM430 321
v-105l98 8l8 97h-106zM237 224l98 -8v105h-106z" />
    <glyph glyph-name="partialdiff" unicode="&#x2202;" horiz-adv-x="765" 
d="M160 591v32l167 -15l-21 132h153l-22 -132l168 15v-32h31l-15 -167l131 21v-153l-131 22l15 -168h-31v-29l-168 15l22 -132h-153l21 132l-167 -15v29h-31l15 168l-132 -22v153l132 -21l-15 167h31zM528 516l-98 7v-107h106zM335 416v107l-98 -7l-8 -100h106zM430 321
v-105l98 8l8 97h-106zM237 224l98 -8v105h-106z" />
    <glyph glyph-name="Delta" unicode="&#x2206;" horiz-adv-x="567" 
d="M365 601v128h147v-128h-147zM91 0v424h-76v109h76v49q0 160 161 160q58 0 70 -4v-109q-18 3 -30 3q-55 0 -55 -57v-42h81v-109h-81v-424h-146zM353 -202q-60 0 -75 5v105q15 -3 36 -3q51 0 51 61v567h147v-583q0 -74 -33.5 -113t-125.5 -39z" />
    <glyph glyph-name="product" unicode="&#x220f;" horiz-adv-x="495" 
d="M247 293q-84 0 -139.5 65.5t-55.5 164.5q0 98 56 164.5t140 66.5q85 0 140 -65.5t55 -164.5q0 -98 -56 -164.5t-140 -66.5zM248 330q67 0 109.5 55t42.5 138q0 82 -43.5 137.5t-109.5 55.5t-108.5 -54.5t-42.5 -137.5t43 -138.5t109 -55.5zM169 404v249h82q85 0 85 -82
q0 -53 -36 -72l38 -95h-59l-36 86h-19v-86h-55zM224 535h24q33 0 33 34q0 32 -33 32h-24v-66z" />
    <glyph glyph-name="summation" unicode="&#x2211;" horiz-adv-x="765" 
d="M160 591v32l167 -15l-21 132h153l-22 -132l168 15v-32h31l-15 -167l131 21v-153l-131 22l15 -168h-31v-29l-168 15l22 -132h-153l21 132l-167 -15v29h-31l15 168l-132 -22v153l132 -21l-15 167h31zM528 516l-98 7v-107h106zM335 416v107l-98 -7l-8 -100h106zM430 321
v-105l98 8l8 97h-106zM237 224l98 -8v105h-106z" />
    <glyph glyph-name="minus" unicode="&#x2212;" horiz-adv-x="565" 
d="M54 280v122h457v-122h-457z" />
    <glyph glyph-name="radical" unicode="&#x221a;" horiz-adv-x="527" 
d="M155 -1l-155 534h149l58 -238q19 -78 31 -145h2q14 71 32 144l118 446h137l-214 -741h-158z" />
    <glyph glyph-name="infinity" unicode="&#x221e;" horiz-adv-x="841" 
d="M639 601v128h147v-128h-147zM91 0v424h-76v109h76v49q0 74 35.5 117t125.5 43q58 0 70 -4v-109q-18 3 -30 3q-55 0 -55 -57v-42h128v49q0 160 161 160q58 0 70 -4v-109q-18 3 -30 3q-55 0 -55 -57v-42h81v-109h-81v-424h-146v424h-128v-424h-146zM639 0v533h147v-533
h-147z" />
    <glyph glyph-name="integral" unicode="&#x222b;" horiz-adv-x="765" 
d="M160 591v32l167 -15l-21 132h153l-22 -132l168 15v-32h31l-15 -167l131 21v-153l-131 22l15 -168h-31v-29l-168 15l22 -132h-153l21 132l-167 -15v29h-31l15 168l-132 -22v153l132 -21l-15 167h31zM528 516l-98 7v-107h106zM335 416v107l-98 -7l-8 -100h106zM430 321
v-105l98 8l8 97h-106zM237 224l98 -8v105h-106z" />
    <glyph glyph-name="approxequal" unicode="&#x2248;" horiz-adv-x="765" 
d="M160 591v32l167 -15l-21 132h153l-22 -132l168 15v-32h31l-15 -167l131 21v-153l-131 22l15 -168h-31v-29l-168 15l22 -132h-153l21 132l-167 -15v29h-31l15 168l-132 -22v153l132 -21l-15 167h31zM528 516l-98 7v-107h106zM335 416v107l-98 -7l-8 -100h106zM430 321
v-105l98 8l8 97h-106zM237 224l98 -8v105h-106z" />
    <glyph glyph-name="notequal" unicode="&#x2260;" horiz-adv-x="621" 
d="M91 0v424h-76v109h76v49q0 74 35.5 117t125.5 43q58 0 70 -4v-109q-18 3 -30 3q-55 0 -55 -57v-42h128v49q0 76 35.5 118t133.5 42q65 0 77 -4v-109q-18 3 -37 3q-30 0 -46.5 -11.5t-16.5 -45.5v-42h96v-109h-96v-424h-146v424h-128v-424h-146z" />
    <glyph glyph-name="lessequal" unicode="&#x2264;" horiz-adv-x="765" 
d="M160 591v32l167 -15l-21 132h153l-22 -132l168 15v-32h31l-15 -167l131 21v-153l-131 22l15 -168h-31v-29l-168 15l22 -132h-153l21 132l-167 -15v29h-31l15 168l-132 -22v153l132 -21l-15 167h31zM528 516l-98 7v-107h106zM335 416v107l-98 -7l-8 -100h106zM430 321
v-105l98 8l8 97h-106zM237 224l98 -8v105h-106z" />
    <glyph glyph-name="greaterequal" unicode="&#x2265;" horiz-adv-x="765" 
d="M160 591v32l167 -15l-21 132h153l-22 -132l168 15v-32h31l-15 -167l131 21v-153l-131 22l15 -168h-31v-29l-168 15l22 -132h-153l21 132l-167 -15v29h-31l15 168l-132 -22v153l132 -21l-15 167h31zM528 516l-98 7v-107h106zM335 416v107l-98 -7l-8 -100h106zM430 321
v-105l98 8l8 97h-106zM237 224l98 -8v105h-106z" />
    <glyph glyph-name="lozenge" unicode="&#x25ca;" horiz-adv-x="765" 
d="M160 591v32l167 -15l-21 132h153l-22 -132l168 15v-32h31l-15 -167l131 21v-153l-131 22l15 -168h-31v-29l-168 15l22 -132h-153l21 132l-167 -15v29h-31l15 168l-132 -22v153l132 -21l-15 167h31zM528 516l-98 7v-107h106zM335 416v107l-98 -7l-8 -100h106zM430 321
v-105l98 8l8 97h-106zM237 224l98 -8v105h-106z" />
    <glyph glyph-name="apple" unicode="&#xf8ff;" horiz-adv-x="765" 
d="M160 591v32l167 -15l-21 132h153l-22 -132l168 15v-32h31l-15 -167l131 21v-153l-131 22l15 -168h-31v-29l-168 15l22 -132h-153l21 132l-167 -15v29h-31l15 168l-132 -22v153l132 -21l-15 167h31zM528 516l-98 7v-107h106zM335 416v107l-98 -7l-8 -100h106zM430 321
v-105l98 8l8 97h-106zM237 224l98 -8v105h-106z" />
    <glyph glyph-name="fi" unicode="&#xfb01;" horiz-adv-x="567" 
d="M365 601v128h147v-128h-147zM91 0v424h-76v109h76v49q0 160 161 160q58 0 70 -4v-109q-18 3 -30 3q-55 0 -55 -57v-42h81v-109h-81v-424h-146zM365 0v533h147v-533h-147z" />
    <glyph glyph-name="fl" unicode="&#xfb02;" horiz-adv-x="567" 
d="M91 0v424h-76v109h76v49q0 160 161 160q58 0 70 -4v-109q-18 3 -30 3q-55 0 -55 -57v-42h81v-109h-81v-424h-146zM365 0v740h147v-740h-147z" />
    <glyph glyph-name="NUL" horiz-adv-x="0" 
 />
  </font>
</defs>
</svg>
