<?xml version="1.0" standalone="no"?>
<!DOCTYPE svg PUBLIC "-//W3C//DTD SVG 1.1//EN" "http://www.w3.org/Graphics/SVG/1.1/DTD/svg11.dtd" >
<svg xmlns="http://www.w3.org/2000/svg" xmlns:xlink="http://www.w3.org/1999/xlink" version="1.1">
<metadata>
Created by FontForge 20161003 at Thu Oct 26 18:07:06 2017
 By www-data
[c] Copyright 2000-2003, The Font Bureau, Inc. Designed by Cyrus Highsmith, Tobias Frere-Jones, and Font Bureau. All rights reserved.
</metadata>
<defs>
<font id="BentonSansCondensedMedium" horiz-adv-x="463" >
  <font-face 
    font-family="BentonSansCondensedMedium"
    font-weight="500"
    font-stretch="condensed"
    units-per-em="1000"
    panose-1="2 0 6 6 4 0 0 2 0 4"
    ascent="800"
    descent="-200"
    x-height="530"
    cap-height="740"
    bbox="-73 -206 1195 948"
    underline-thickness="20"
    underline-position="-153"
    unicode-range="U+0020-FB02"
  />
<missing-glyph horiz-adv-x="500" 
 />
    <glyph glyph-name=".notdef" horiz-adv-x="500" 
 />
    <glyph glyph-name=".null" horiz-adv-x="0" 
 />
    <glyph glyph-name="nonmarkingreturn" horiz-adv-x="333" 
 />
    <glyph glyph-name="space" unicode=" " horiz-adv-x="211" 
 />
    <glyph glyph-name="exclam" unicode="!" horiz-adv-x="297" 
d="M106 212l-26 528h139l-25 -528h-88zM86 0v121h128v-121h-128z" />
    <glyph glyph-name="quotedbl" unicode="&#x22;" horiz-adv-x="387" 
d="M242 480l-14 201v59h101v-59l-14 -201h-73zM72 480l-14 201v59h102v-59l-14 -201h-74z" />
    <glyph glyph-name="numbersign" unicode="#" horiz-adv-x="632" 
d="M85 0l36 204h-95v90h111l27 152h-101v90h118l36 204h103l-36 -204h117l36 204h103l-36 -204h102v-90h-118l-28 -152h109v-90h-125l-35 -204h-104l36 204h-116l-36 -204h-104zM240 292h117l28 156h-117z" />
    <glyph glyph-name="dollar" unicode="$" horiz-adv-x="569" 
d="M241 1q-149 19 -204 183l100 31q41 -100 108 -118v240q-42 18 -68.5 32.5t-56.5 39t-45 60.5t-15 82q0 77 48.5 128.5t132.5 61.5v78h84v-79q126 -19 180 -162l-97 -40q-32 80 -86 101v-218q37 -15 58 -25t52 -30t48 -41t29.5 -54t12.5 -73q0 -81 -51.5 -134.5
t-145.5 -63.5v-93h-84v94zM245 644q-35 -7 -54.5 -29.5t-19.5 -55.5q0 -62 74 -103v188zM322 94q88 16 88 94q0 70 -88 114v-208z" />
    <glyph glyph-name="percent" unicode="%" horiz-adv-x="879" 
d="M194 283q-76 0 -117.5 59.5t-41.5 174.5t41.5 174.5t117.5 59.5t117 -59.5t41 -174.5t-41 -174.5t-117 -59.5zM203 0l376 740h96l-376 -740h-96zM686 -9q-76 0 -117.5 59.5t-41.5 174.5q0 114 41.5 173.5t117.5 59.5t116.5 -59.5t40.5 -173.5q0 -115 -40.5 -174.5
t-116.5 -59.5zM194 369q34 0 48.5 34.5t14.5 113.5q0 78 -15 112.5t-48 34.5q-34 0 -48.5 -34t-14.5 -113q0 -78 15 -113t48 -35zM686 76q34 0 48.5 35t14.5 114q0 77 -15 111.5t-48 34.5q-35 0 -49.5 -33.5t-14.5 -112.5t15 -114t49 -35z" />
    <glyph glyph-name="ampersand" unicode="&#x26;" horiz-adv-x="635" 
d="M253 -14q-109 0 -170 49.5t-61 138.5q0 77 38.5 129.5t107.5 97.5q-44 91 -44 175q0 80 46 129t127 49q78 0 117 -42t39 -105q0 -72 -40.5 -122t-114.5 -99q1 -1 46 -72q60 -83 89 -114q36 73 45 177h100q-17 -144 -70 -238q58 -46 115 -49v-100q-101 3 -183 64
q-74 -68 -187 -68zM261 458q93 66 93 140q0 65 -56 65q-67 0 -67 -81q0 -55 30 -124zM257 77q68 0 109 38q-44 49 -105 135q-34 48 -50 74q-76 -62 -76 -138q0 -48 31 -78.5t91 -30.5z" />
    <glyph glyph-name="quotesingle" unicode="'" horiz-adv-x="220" 
d="M72 480l-14 201v59h103v-59l-14 -201h-75z" />
    <glyph glyph-name="parenleft" unicode="(" horiz-adv-x="354" 
d="M256 -205q-214 209 -214 482q0 270 214 481l67 -52q-162 -196 -162 -429q0 -122 44 -234t119 -197z" />
    <glyph glyph-name="parenright" unicode=")" horiz-adv-x="354" 
d="M98 -205l-68 51q163 195 163 430q0 121 -43.5 232.5t-118.5 197.5l67 52q214 -209 214 -482q0 -270 -214 -481z" />
    <glyph glyph-name="asterisk" unicode="*" horiz-adv-x="472" 
d="M169 349l-69 40l93 132l-160 -13v76l163 -14l-96 134l69 41l67 -149l68 149l68 -41l-94 -134l161 14v-76l-161 13l94 -132l-68 -40l-68 147z" />
    <glyph glyph-name="plus" unicode="+" horiz-adv-x="550" 
d="M226 84v204h-175v95h175v205h98v-205h175v-95h-175v-204h-98z" />
    <glyph glyph-name="comma" unicode="," horiz-adv-x="241" 
d="M72 -107l35 107h-48v128h122v-115l-55 -120h-54z" />
    <glyph glyph-name="hyphen" unicode="-" horiz-adv-x="312" 
d="M44 268v88h224v-88h-224z" />
    <glyph glyph-name="period" unicode="." horiz-adv-x="241" 
d="M59 0v128h122v-128h-122z" />
    <glyph glyph-name="slash" unicode="/" horiz-adv-x="512" 
d="M14 0l366 740h117l-365 -740h-118z" />
    <glyph glyph-name="zero" unicode="0" horiz-adv-x="579" 
d="M289 -14q-122 0 -186.5 98t-64.5 286t64.5 286t186.5 98t186.5 -98t64.5 -286t-64.5 -286t-186.5 -98zM289 89q68 0 101 66.5t33 214.5q0 147 -33.5 213t-100.5 66q-68 0 -101 -65.5t-33 -213.5t33.5 -214.5t100.5 -66.5z" />
    <glyph glyph-name="one" unicode="1" horiz-adv-x="394" 
d="M36 0v101h117v522q-55 -34 -115 -34v103q78 3 118 48h111v-639h104v-101h-335z" />
    <glyph glyph-name="two" unicode="2" horiz-adv-x="517" 
d="M29 0v16q0 68 18.5 123.5t47.5 92.5t64 69t70.5 58.5t64.5 53.5t47.5 62t18.5 77q0 97 -94 97q-85 0 -132 -113l-96 42q74 176 235 176q95 0 148 -54t53 -143q0 -48 -17 -91t-44.5 -74t-60.5 -59.5t-66.5 -54.5t-61 -52t-45 -58t-18.5 -67h313v-101h-445z" />
    <glyph glyph-name="three" unicode="3" horiz-adv-x="525" 
d="M251 -13q-176 0 -242 165l98 43q24 -59 57 -84.5t82 -25.5q58 0 91.5 33t33.5 88q0 71 -41.5 104t-131.5 33h-30v94h43q78 0 111 30t33 91q0 94 -100 94q-78 0 -134 -79l-82 56q86 125 227 125q97 0 150 -51t53 -133q0 -66 -32.5 -112t-83.5 -63q132 -44 132 -191
q0 -98 -64.5 -157.5t-169.5 -59.5z" />
    <glyph glyph-name="four" unicode="4" horiz-adv-x="554" 
d="M321 0v157h-300v91l285 492h128v-482h103v-101h-103v-157h-113zM138 258h185v324h-1z" />
    <glyph glyph-name="five" unicode="5" horiz-adv-x="518" 
d="M256 -14q-88 0 -144 40t-92 116l96 45q50 -103 135 -103q63 0 94 42.5t31 116.5q0 76 -31 115t-85 39q-75 0 -121 -71l-84 19l24 395h371l-6 -104h-271l-15 -209q44 65 137 65t144 -63.5t51 -181.5q0 -122 -62 -191.5t-172 -69.5z" />
    <glyph glyph-name="six" unicode="6" horiz-adv-x="540" 
d="M283 -14q-115 0 -180 94t-65 277q0 189 68 293t192 104q123 0 190 -112l-91 -55q-43 68 -103 68q-137 0 -143 -256q72 72 163 72q96 0 147.5 -63t51.5 -173t-61.5 -179.5t-168.5 -69.5zM289 83q55 0 84 38t29 110q0 141 -111 141q-83 0 -140 -66q14 -223 138 -223z" />
    <glyph glyph-name="seven" unicode="7" horiz-adv-x="470" 
d="M79 0l250 636h-305v104h426v-94l-252 -646h-119z" />
    <glyph glyph-name="eight" unicode="8" horiz-adv-x="539" 
d="M270 -16q-118 0 -181.5 54.5t-63.5 141.5q0 68 40 114t114 87q-61 37 -93 82t-32 110q0 76 56.5 129.5t159.5 53.5q105 0 160 -52.5t55 -129.5q0 -59 -31.5 -100t-92.5 -77q74 -41 113.5 -90t39.5 -125q0 -87 -65.5 -142.5t-178.5 -55.5zM277 438q50 29 73 57.5t23 69.5
t-25 69t-77 28q-51 0 -77.5 -27t-26.5 -68q0 -42 27 -70.5t83 -58.5zM269 75q60 0 94 31.5t34 82.5q0 48 -33 81t-102 70q-62 -36 -92 -70.5t-30 -80.5q0 -50 35 -82t94 -32z" />
    <glyph glyph-name="nine" unicode="9" horiz-adv-x="540" 
d="M244 -14q-128 0 -196 116l90 55q16 -22 28 -36t34 -26t47 -12q68 0 104 67t38 191q-70 -72 -163 -72q-95 0 -147 63t-52 173t63 179.5t168 69.5q116 0 180 -93.5t64 -277.5q0 -190 -66.5 -293.5t-191.5 -103.5zM251 368q81 0 138 66q-13 221 -137 221q-114 0 -114 -146
q0 -141 113 -141z" />
    <glyph glyph-name="colon" unicode=":" horiz-adv-x="247" 
d="M62 402v128h122v-128h-122zM62 0v128h122v-128h-122z" />
    <glyph glyph-name="semicolon" unicode=";" horiz-adv-x="247" 
d="M62 402v128h122v-128h-122zM74 -107l35 107h-47v128h122v-113l-56 -122h-54z" />
    <glyph glyph-name="less" unicode="&#x3c;" horiz-adv-x="574" 
d="M510 65l-450 221v76l450 221v-100l-335 -159l335 -159v-100z" />
    <glyph glyph-name="equal" unicode="=" horiz-adv-x="550" 
d="M61 392v89h428v-89h-428zM61 171v89h428v-89h-428z" />
    <glyph glyph-name="greater" unicode="&#x3e;" horiz-adv-x="574" 
d="M65 65v100l334 159l-334 159v100l450 -221v-76z" />
    <glyph glyph-name="question" unicode="?" horiz-adv-x="484" 
d="M176 211q-2 21 -2 60q0 57 23 95t69 80q37 33 54 60t17 66t-23 61t-65 22q-77 0 -123 -100l-94 39q69 160 224 160q91 0 141.5 -48.5t50.5 -124.5q0 -34 -7 -60.5t-23.5 -49.5t-28.5 -35.5t-37 -35.5q-50 -47 -64.5 -80.5t-14.5 -108.5h-97zM159 0v122h129v-122h-129z
" />
    <glyph glyph-name="at" unicode="@" horiz-adv-x="749" 
d="M372 -14q-156 0 -246 100.5t-90 282.5q0 175 94 280t246 105q150 0 243.5 -102.5t93.5 -271.5q0 -108 -42.5 -166.5t-120.5 -58.5q-91 0 -116 79q-60 -74 -132 -74q-58 0 -89.5 44t-30.5 123q1 119 47.5 191t121.5 72q64 0 101 -54l5 45h88l-37 -293q-10 -78 55 -78
q42 0 67 41.5t25 127.5q0 149 -77 235.5t-203 86.5q-127 0 -203.5 -88t-76.5 -243q0 -162 75 -247.5t204 -85.5q100 0 175 46l25 -43q-83 -54 -202 -54zM334 234q42 0 84 45l25 193q-32 41 -75 41q-42 0 -67.5 -48.5t-27.5 -127.5q-1 -103 61 -103z" />
    <glyph glyph-name="A" unicode="A" horiz-adv-x="583" 
d="M178 177l-49 -177h-110l216 743h113l216 -743h-118l-48 177h-220zM370 280l-24 90q-44 158 -56 215h-2q-12 -55 -57 -214l-25 -91h164z" />
    <glyph glyph-name="B" unicode="B" horiz-adv-x="592" 
d="M69 0v740h234q105 0 166.5 -44t61.5 -141q0 -73 -32.5 -114t-79.5 -56v-2q130 -30 130 -181q0 -100 -65.5 -151t-167.5 -51h-247zM185 427h110q63 0 93.5 23t30.5 80q0 58 -28.5 82t-93.5 24h-112v-209zM185 100h125q65 0 95.5 29t30.5 89q0 63 -34 88.5t-103 25.5h-114
v-232z" />
    <glyph glyph-name="C" unicode="C" horiz-adv-x="596" 
d="M313 -13q-128 0 -201 97t-73 287q0 187 74.5 285t201.5 98q107 0 164 -63.5t76 -180.5l-110 -20q-15 81 -45.5 117.5t-87.5 36.5q-76 0 -115.5 -69.5t-39.5 -202.5q0 -279 157 -279q59 0 91 37.5t49 126.5l109 -18q-49 -252 -250 -252z" />
    <glyph glyph-name="D" unicode="D" horiz-adv-x="613" 
d="M69 0v740h178q159 0 243 -86t84 -282q0 -198 -84.5 -285t-242.5 -87h-178zM187 105h73q104 0 149.5 61t45.5 206q0 140 -45.5 200t-150.5 60h-72v-527z" />
    <glyph glyph-name="E" unicode="E" horiz-adv-x="517" 
d="M69 0v740h401v-109h-283v-190h205v-106h-205v-229h298v-106h-416z" />
    <glyph glyph-name="F" unicode="F" horiz-adv-x="486" 
d="M69 0v740h394v-109h-276v-200h200v-106h-200v-325h-118z" />
    <glyph glyph-name="G" unicode="G" horiz-adv-x="623" 
d="M302 -13q-126 0 -194.5 101t-68.5 284q0 182 72.5 282t203.5 100q101 0 158.5 -60.5t80.5 -183.5l-107 -22q-17 85 -48.5 121t-86.5 36q-72 0 -113.5 -65t-41.5 -206q0 -281 160 -281q130 0 140 175h-124v98h230v-366h-89v98h-2q-17 -45 -61.5 -78t-108.5 -33z" />
    <glyph glyph-name="H" unicode="H" horiz-adv-x="634" 
d="M69 0v740h118v-297h260v297h118v-740h-118v334h-260v-334h-118z" />
    <glyph glyph-name="I" unicode="I" horiz-adv-x="267" 
d="M74 0v740h118v-740h-118z" />
    <glyph glyph-name="J" unicode="J" horiz-adv-x="444" 
d="M196 -11q-103 0 -182 57l50 86q60 -42 120 -42q81 0 81 93v557h118v-564q0 -90 -48.5 -138.5t-138.5 -48.5z" />
    <glyph glyph-name="K" unicode="K" horiz-adv-x="587" 
d="M69 0v740h117v-355q18 33 70 110l165 245h126l-202 -289l230 -451h-127l-178 351l-84 -115v-236h-117z" />
    <glyph glyph-name="L" unicode="L" horiz-adv-x="498" 
d="M69 0v740h118v-634h285v-106h-403z" />
    <glyph glyph-name="M" unicode="M" horiz-adv-x="751" 
d="M69 0v740h149l158 -576h2l153 576h150v-740h-112v563h-2q-10 -68 -45 -185l-107 -378h-89l-107 379q-29 95 -45 186h-2v-565h-103z" />
    <glyph glyph-name="N" unicode="N" horiz-adv-x="639" 
d="M69 0v740h127l201 -393q29 -57 63 -129h2v522h107v-740h-109l-220 418q-44 87 -62 125h-2v-543h-107z" />
    <glyph glyph-name="O" unicode="O" horiz-adv-x="639" 
d="M320 -14q-124 0 -202.5 99t-78.5 285t78.5 285t202.5 99q123 0 201.5 -99t78.5 -285t-78.5 -285t-201.5 -99zM320 93q77 0 119 71.5t42 205.5t-42 204.5t-119 70.5q-78 0 -120.5 -70.5t-42.5 -204.5t42.5 -205.5t120.5 -71.5z" />
    <glyph glyph-name="P" unicode="P" horiz-adv-x="563" 
d="M69 0v740h215q110 0 176.5 -55t66.5 -173q0 -125 -69 -179.5t-178 -54.5h-95v-278h-116zM185 380h99q68 0 99 30t31 99q0 66 -31.5 94.5t-99.5 28.5h-98v-252z" />
    <glyph glyph-name="Q" unicode="Q" horiz-adv-x="639" 
d="M465 -193q-204 0 -206 189q-100 19 -160 115.5t-60 258.5q0 185 79 284.5t203 99.5q123 0 201 -99.5t78 -284.5q0 -167 -62.5 -263t-165.5 -113q6 -54 35 -71t95 -17h42v-99h-79zM321 90q76 0 118 73t42 207t-42 204.5t-118 70.5q-78 0 -121 -70.5t-43 -204.5t43 -207
t121 -73z" />
    <glyph glyph-name="R" unicode="R" horiz-adv-x="582" 
d="M69 0v740h220q238 0 238 -224q0 -79 -35 -130.5t-93 -70.5l142 -315h-121l-132 289h-104v-289h-115zM184 389h100q67 0 98.5 28.5t31.5 96.5q0 65 -31.5 91.5t-98.5 26.5h-100v-243z" />
    <glyph glyph-name="S" unicode="S" horiz-adv-x="567" 
d="M292 -13q-181 0 -262 178l99 49q58 -124 163 -124q56 0 87.5 25t31.5 71q0 27 -10.5 48t-34 38t-42.5 27.5t-55 26.5q-98 45 -133 74q-75 60 -75 159q0 86 61.5 140.5t156.5 54.5q163 0 236 -161l-99 -51q-24 52 -56.5 80t-82.5 28q-46 0 -73 -23t-27 -63q0 -48 34 -77.5
t102 -61.5q33 -15 43 -19.5t40.5 -20.5t42 -26t33 -30t30.5 -38t16.5 -44.5t7.5 -56.5q0 -86 -63 -144.5t-171 -58.5z" />
    <glyph glyph-name="T" unicode="T" horiz-adv-x="528" 
d="M205 0v631h-184v109h485v-109h-183v-631h-118z" />
    <glyph glyph-name="U" unicode="U" horiz-adv-x="607" 
d="M304 -13q-243 0 -243 262v491h118v-480q0 -87 29.5 -127.5t97.5 -40.5t97 40.5t29 125.5v482h113v-489q0 -126 -59 -195t-182 -69z" />
    <glyph glyph-name="V" unicode="V" horiz-adv-x="573" 
d="M230 -3l-211 743h118l99 -375q26 -97 53 -211h2q18 83 53 209l100 377h110l-211 -743h-113z" />
    <glyph glyph-name="W" unicode="W" horiz-adv-x="793" 
d="M187 -3l-165 743h113l69 -339q25 -120 39 -208h2q13 85 38 208l65 339h105l68 -347q27 -136 36 -200h2q10 63 37 199l70 348h104l-165 -743h-101l-106 542h-2l-107 -542h-102z" />
    <glyph glyph-name="X" unicode="X" horiz-adv-x="578" 
d="M18 0l208 395l-181 345h127l124 -248l119 248h114l-178 -341l209 -399h-125l-152 302l-150 -302h-115z" />
    <glyph glyph-name="Y" unicode="Y" horiz-adv-x="551" 
d="M216 0v298l-207 442h121l147 -335h2l147 335h115l-207 -441v-299h-118z" />
    <glyph glyph-name="Z" unicode="Z" horiz-adv-x="539" 
d="M27 0v86l334 545h-310v109h452v-88l-330 -546h330v-106h-476z" />
    <glyph glyph-name="bracketleft" unicode="[" horiz-adv-x="358" 
d="M63 -200v940h266v-85h-149v-771h149v-84h-266z" />
    <glyph glyph-name="backslash" unicode="\" horiz-adv-x="502" 
d="M375 0l-366 740h118l365 -740h-117z" />
    <glyph glyph-name="bracketright" unicode="]" horiz-adv-x="358" 
d="M28 -200v84h150v771h-150v85h266v-940h-266z" />
    <glyph glyph-name="asciicircum" unicode="^" horiz-adv-x="462" 
d="M82 584l110 162h78l109 -162h-67l-82 79l-81 -79h-67z" />
    <glyph glyph-name="underscore" unicode="_" horiz-adv-x="434" 
d="M-5 -141v86h444v-86h-444z" />
    <glyph glyph-name="grave" unicode="`" 
d="M219 585l-122 161h120l80 -161h-78z" />
    <glyph glyph-name="a" unicode="a" horiz-adv-x="484" 
d="M156 -6q-58 0 -93 35.5t-35 100.5q0 166 291 221v23q0 37 -15.5 53t-50.5 16q-80 0 -150 -61l-57 70q96 89 221 89q163 0 163 -167v-244q0 -91 13 -130h-113q-11 37 -11 67q-57 -73 -163 -73zM201 84q67 0 118 55v134q-180 -39 -180 -124q0 -65 62 -65z" />
    <glyph glyph-name="b" unicode="b" horiz-adv-x="521" 
d="M306 -8q-84 0 -135 65v-57h-114v739h114v-274q59 76 142 76q81 0 128.5 -69t47.5 -206t-50 -205.5t-133 -68.5zM275 85q99 0 99 180q0 179 -100 179q-48 0 -103 -61v-241q46 -57 104 -57z" />
    <glyph glyph-name="c" unicode="c" horiz-adv-x="468" 
d="M246 -11q-92 0 -153 70.5t-61 205.5q0 138 63.5 207t155.5 69q83 0 126.5 -44t64.5 -122l-102 -25q-13 49 -33.5 71.5t-57.5 22.5q-47 0 -75 -43.5t-28 -135.5q0 -182 103 -182q37 0 60.5 22.5t35.5 75.5l99 -25q-44 -167 -198 -167z" />
    <glyph glyph-name="d" unicode="d" horiz-adv-x="521" 
d="M209 -8q-81 0 -128.5 68t-47.5 205t50.5 206.5t132.5 69.5t135 -67v266h114v-610q0 -95 13 -130h-117q-10 27 -10 69q-60 -77 -142 -77zM248 85q25 0 55 19t48 41v242q-46 57 -104 57q-99 0 -99 -182q0 -177 100 -177z" />
    <glyph glyph-name="e" unicode="e" horiz-adv-x="482" 
d="M251 -11q-97 0 -158 69.5t-61 206.5q0 138 63.5 207t153.5 69q93 0 147 -70t54 -209v-31h-306q4 -74 33 -111.5t79 -37.5q40 0 67 17.5t54 54.5l72 -52q-31 -50 -83.5 -81.5t-114.5 -31.5zM145 311h199q-8 135 -96 135q-41 0 -69 -32.5t-34 -102.5z" />
    <glyph glyph-name="f" unicode="f" horiz-adv-x="322" 
d="M94 0v439h-76v91h76v65q0 70 36 108.5t121 38.5q46 0 58 -3v-92q-8 2 -34 2q-67 0 -67 -62v-57h97v-91h-97v-439h-114z" />
    <glyph glyph-name="g" unicode="g" horiz-adv-x="509" 
d="M378 488q46 43 111 52v-99q-39 0 -76 -11q17 -36 17 -81q0 -87 -52.5 -138.5t-141.5 -51.5q-40 0 -70 10q-21 -13 -21 -33q0 -15 11 -21t43 -10l75 -8q109 -10 154.5 -42.5t45.5 -98.5q0 -73 -69 -114.5t-180 -41.5q-115 0 -166 31t-51 91q0 73 83 113q-43 25 -43 67
q0 53 63 93q-73 53 -73 154q0 86 54 139t143 53q92 0 143 -53zM237 238q43 0 65.5 28.5t22.5 80.5q0 109 -89 109q-43 0 -66.5 -29t-23.5 -80q0 -52 24 -80.5t67 -28.5zM159 15q-47 -28 -47 -74q0 -37 29 -52t100 -15q59 0 94.5 16.5t35.5 48.5q0 30 -23.5 45t-91.5 21
l-83 8q-2 1 -7 1.5t-7 0.5z" />
    <glyph glyph-name="h" unicode="h" horiz-adv-x="517" 
d="M57 0v740h114v-279q27 33 70 56.5t93 23.5q62 0 96 -38t34 -111v-392h-114v366q0 40 -14.5 58.5t-46.5 18.5q-56 0 -118 -62v-381h-114z" />
    <glyph glyph-name="i" unicode="i" horiz-adv-x="239" 
d="M62 617v107h115v-107h-115zM62 0v530h114v-530h-114z" />
    <glyph glyph-name="j" unicode="j" horiz-adv-x="239" 
d="M62 617v107h115v-107h-115zM42 -201q-47 0 -59 4v86q9 -3 32 -3q47 0 47 59v585h114v-596q0 -67 -29 -101t-105 -34z" />
    <glyph glyph-name="k" unicode="k" horiz-adv-x="479" 
d="M57 0v740h113v-453q11 23 61 94l102 149h116l-141 -195l156 -335h-116l-111 242l-67 -90v-152h-113z" />
    <glyph glyph-name="l" unicode="l" horiz-adv-x="239" 
d="M62 0v740h114v-740h-114z" />
    <glyph glyph-name="m" unicode="m" horiz-adv-x="791" 
d="M57 0v530h114v-69q26 32 69.5 56t87.5 24q54 0 81.5 -18.5t37.5 -59.5q68 78 161 78q62 0 96 -38t34 -111v-392h-114v366q0 40 -14.5 58.5t-46.5 18.5q-45 0 -109 -53v-390h-114v366q0 41 -12.5 59t-45.5 18q-48 0 -111 -61v-382h-114z" />
    <glyph glyph-name="n" unicode="n" horiz-adv-x="517" 
d="M57 0v530h114v-69q27 33 70 56.5t93 23.5q62 0 96 -38t34 -111v-392h-114v366q0 40 -14.5 58.5t-46.5 18.5q-56 0 -118 -62v-381h-114z" />
    <glyph glyph-name="o" unicode="o" horiz-adv-x="508" 
d="M254 -11q-96 0 -159 70.5t-63 205.5q0 136 63 206t159 70t158.5 -70t62.5 -206q0 -135 -63 -205.5t-158 -70.5zM254 82q107 0 107 183q0 180 -107 180q-108 0 -108 -180q0 -183 108 -183z" />
    <glyph glyph-name="p" unicode="p" horiz-adv-x="521" 
d="M57 -200v730h114v-65q59 76 142 76q81 0 128.5 -69t47.5 -206t-50 -205.5t-133 -68.5q-82 0 -135 67v-259h-114zM275 85q99 0 99 180q0 179 -100 179q-25 0 -55 -19t-48 -41v-242q46 -57 104 -57z" />
    <glyph glyph-name="q" unicode="q" horiz-adv-x="521" 
d="M350 -200v267q-62 -76 -141 -76q-81 0 -128.5 67.5t-47.5 205.5q0 137 48 207t129 70t140 -74v63h114v-730h-114zM248 82q46 0 102 60v242q-53 60 -103 60q-99 0 -99 -179q0 -183 100 -183z" />
    <glyph glyph-name="r" unicode="r" horiz-adv-x="357" 
d="M57 0v530h114v-82h2q21 38 61.5 65.5t96.5 27.5h10l-3 -105q-1 0 -11 0.5t-15 0.5q-90 0 -141 -84v-353h-114z" />
    <glyph glyph-name="s" unicode="s" horiz-adv-x="450" 
d="M225 -11q-139 0 -215 103l70 59q60 -74 147 -74t87 60q0 31 -28 51t-68 32.5t-80 28.5t-68 51.5t-28 89.5q0 70 51.5 110.5t130.5 40.5q56 0 105.5 -24t81.5 -66l-68 -62q-53 62 -120 62q-73 0 -73 -55q0 -26 20 -44.5t50 -27.5t65.5 -23t65.5 -29.5t50 -48.5t20 -79
q0 -72 -56.5 -113.5t-139.5 -41.5z" />
    <glyph glyph-name="t" unicode="t" horiz-adv-x="346" 
d="M238 -6q-83 0 -115 30.5t-32 101.5v313h-76v91h76v186h114v-186h115v-91h-115v-282q0 -42 14 -58t52 -16q27 0 45 6v-88q-19 -7 -78 -7z" />
    <glyph glyph-name="u" unicode="u" horiz-adv-x="517" 
d="M183 -11q-62 0 -96 38t-34 111v392h114v-368q0 -40 14.5 -58t48.5 -18q52 0 116 62v382h114v-530h-114v69q-70 -80 -163 -80z" />
    <glyph glyph-name="v" unicode="v" horiz-adv-x="455" 
d="M167 -2l-158 532h115l72 -268q21 -84 35 -144h2q13 59 34 143l72 269h107l-158 -532h-121z" />
    <glyph glyph-name="w" unicode="w" horiz-adv-x="653" 
d="M140 -2l-130 532h111l51 -222q17 -73 30 -151h2q10 59 31 153l49 220h97l49 -217q24 -107 32 -156h2q7 42 30 155l50 218h99l-130 -532h-102l-83 366h-2l-85 -366h-101z" />
    <glyph glyph-name="x" unicode="x" horiz-adv-x="453" 
d="M12 0l158 275l-144 255h118l92 -170l85 170h109l-144 -251l157 -279h-117l-103 193l-102 -193h-109z" />
    <glyph glyph-name="y" unicode="y" horiz-adv-x="468" 
d="M103 -202q-60 0 -104 14l22 90q39 -9 71 -9q29 0 44.5 15t27.5 51l11 35l-166 536h118l66 -241q27 -97 40 -162h2q18 76 42 167l66 236h110l-184 -585q-25 -78 -61 -112.5t-105 -34.5z" />
    <glyph glyph-name="z" unicode="z" horiz-adv-x="441" 
d="M27 0v71l238 368h-218v91h354v-72l-239 -368h252v-90h-387z" />
    <glyph glyph-name="braceleft" unicode="{" horiz-adv-x="359" 
d="M249 -200q-131 0 -131 140v174q0 69 -20.5 91.5t-73.5 22.5v84q53 0 73.5 23t20.5 91v174q0 140 134 140h86v-85h-37q-67 0 -67 -74v-164q0 -69 -18.5 -100t-58.5 -46v-2q40 -15 58.5 -46t18.5 -100v-166q0 -38 16 -55.5t51 -17.5h37v-84h-89z" />
    <glyph glyph-name="bar" unicode="|" horiz-adv-x="327" 
d="M106 -200v940h115v-940h-115z" />
    <glyph glyph-name="braceright" unicode="}" horiz-adv-x="359" 
d="M21 -200v84h37q35 0 51 17.5t16 55.5v171q0 69 18 97.5t59 43.5v2q-41 15 -59 43.5t-18 97.5v169q0 74 -67 74h-37v85h92q68 0 98 -34t30 -101v-179q0 -68 20.5 -91t73.5 -23v-84q-53 0 -73.5 -22.5t-20.5 -91.5v-179q0 -135 -125 -135h-95z" />
    <glyph glyph-name="asciitilde" unicode="~" 
d="M299 389q-33 0 -74 28t-56 28q-35 0 -35 -54h-64q0 139 95 139q32 0 73 -28t57 -28q35 0 35 54h62q0 -139 -93 -139z" />
    <glyph glyph-name="nbspace" unicode="&#xa0;" horiz-adv-x="105" 
 />
    <glyph glyph-name="exclamdown" unicode="&#xa1;" horiz-adv-x="297" 
d="M82 619v121h129v-121h-129zM78 0l24 528h89l25 -528h-138z" />
    <glyph glyph-name="cent" unicode="&#xa2;" horiz-adv-x="468" 
d="M148 14q-116 65 -116 251q0 138 63.5 207t155.5 69h4l17 86h83l-20 -102q75 -34 107 -150l-102 -25q-13 47 -30 70l-70 -341h9q73 0 96 102l99 -25q-44 -167 -198 -167q-14 0 -20 1l-21 -101h-83zM240 449q-43 -5 -68.5 -50.5t-25.5 -133.5q0 -94 28 -141z" />
    <glyph glyph-name="sterling" unicode="&#xa3;" horiz-adv-x="573" 
d="M196 337h-122v83h83q-42 88 -42 144q0 86 51 138t137 52q175 0 196 -195l-106 -14q-5 54 -25 83t-64 29q-78 0 -78 -90q0 -49 46 -147h148v-83h-113q21 -63 21 -121q0 -56 -18 -102q45 -34 76 -34q35 0 51.5 26.5t17.5 94.5h100q-2 -103 -37 -159t-119 -56q-67 0 -132 59
q-53 -59 -133 -59q-51 0 -87 28.5t-36 80.5q0 55 35 90t88 35q46 0 93 -35q1 7 1 23q0 56 -32 129zM208 103q-42 42 -73 42q-20 0 -31.5 -12.5t-11.5 -34.5q0 -20 12 -32t32 -12q48 0 72 49z" />
    <glyph glyph-name="currency" unicode="&#xa4;" horiz-adv-x="617" 
d="M108 402h-92v83h99q18 137 81 203t160 66q95 0 151.5 -58.5t72.5 -161.5l-108 -18q-11 65 -38 99.5t-77 34.5q-106 0 -128 -165h158v-83h-165v-29q0 -27 1 -40h164v-83h-158q11 -83 42.5 -122.5t88.5 -39.5q97 0 122 141l106 -14q-17 -101 -76 -165t-152 -64
q-207 0 -244 264h-100v83h93q-1 13 -1 39v30z" />
    <glyph glyph-name="yen" unicode="&#xa5;" horiz-adv-x="551" 
d="M331 238v-69h165v-83h-165v-86h-112v86h-164v83h164v69h-164v83h153l-199 419h121l147 -336h2l147 336h115l-199 -419h154v-83h-165z" />
    <glyph glyph-name="brokenbar" unicode="&#xa6;" horiz-adv-x="327" 
d="M106 331v409h115v-409h-115zM106 -200v409h115v-409h-115z" />
    <glyph glyph-name="section" unicode="&#xa7;" horiz-adv-x="496" 
d="M244 -204q-90 0 -132.5 42.5t-61.5 122.5l98 27q23 -101 94 -101q72 0 72 70q0 34 -25.5 61.5t-82.5 65.5q-36 24 -53.5 36t-43.5 34t-38 39.5t-21.5 43.5t-9.5 55q0 49 28 90t71 69q-67 61 -67 136q0 71 48.5 119.5t131.5 48.5q92 0 134.5 -42.5t62.5 -123.5l-101 -27
q-11 50 -32.5 75t-61.5 25q-37 0 -56 -18.5t-19 -50.5q0 -34 26.5 -61t85.5 -66q45 -30 66 -45t49 -42t39 -55.5t11 -64.5q0 -49 -28.5 -91t-70.5 -69q64 -58 64 -135q0 -72 -47 -120t-130 -48zM291 152q63 39 63 90q0 38 -25.5 65.5t-96.5 73.5q-18 12 -26 17
q-64 -38 -64 -89q0 -38 26 -66t97 -74q4 -3 13 -8.5t13 -8.5z" />
    <glyph glyph-name="dieresis" unicode="&#xa8;" 
d="M268 583v114h102v-114h-102zM93 583v114h103v-114h-103z" />
    <glyph glyph-name="copyright" unicode="&#xa9;" horiz-adv-x="717" 
d="M358 -14q-138 0 -229.5 110.5t-91.5 272.5t92.5 273.5t229.5 111.5q138 0 229.5 -110.5t91.5 -272.5t-92.5 -273.5t-229.5 -111.5zM359 41q113 0 187 94t74 234t-74.5 235t-187.5 95t-187 -94t-74 -234t74.5 -235t187.5 -95zM359 155q-71 0 -111 56.5t-40 162.5
q0 103 40.5 160t111.5 57q110 0 137 -139l-70 -13q-9 42 -24 62t-43 20q-37 0 -56.5 -39.5t-19.5 -107.5q0 -70 19.5 -108.5t56.5 -38.5q28 0 44.5 20.5t25.5 66.5l70 -14q-30 -145 -141 -145z" />
    <glyph glyph-name="ordfeminine" unicode="&#xaa;" horiz-adv-x="379" 
d="M130 363q-42 0 -67 24.5t-25 72.5q0 115 204 155v18q0 52 -44 52q-51 0 -106 -47l-43 50q70 65 162 65q59 0 86 -29.5t27 -90.5v-171q0 -66 10 -93h-84q-8 30 -8 49q-47 -55 -112 -55zM161 430q43 0 81 40v95q-122 -27 -122 -92q0 -43 41 -43z" />
    <glyph glyph-name="guillemotleft" unicode="&#xab;" horiz-adv-x="498" 
d="M358 0l-129 265l129 264h109l-126 -264l126 -265h-109zM155 0l-129 265l129 264h109l-125 -264l125 -265h-109z" />
    <glyph glyph-name="logicalnot" unicode="&#xac;" horiz-adv-x="770" 
d="M176 578v29l167 -13l-18 146h120l-18 -146l167 13v-29h28l-13 -167l146 18v-120l-146 18l13 -167h-28v-26l-167 13l18 -147h-120l18 147l-167 -13v26h-27l13 167l-147 -18v120l147 -18l-13 167h27zM534 519l-112 8v-121h120zM348 406v121l-111 -8l-9 -113h120zM422 332
v-119l112 8l8 111h-120zM236 221l112 -8v119h-120z" />
    <glyph glyph-name="registered" unicode="&#xae;" horiz-adv-x="717" 
d="M358 -14q-138 0 -229.5 110.5t-91.5 272.5t92.5 273.5t229.5 111.5q138 0 229.5 -110.5t91.5 -272.5t-92.5 -273.5t-229.5 -111.5zM359 38q113 0 187.5 95t74.5 236q0 140 -75 236.5t-188 96.5t-187.5 -95t-74.5 -236t75 -237t188 -96zM232 171v413h129q64 0 99.5 -32
t35.5 -96q0 -88 -67 -117l72 -168h-81l-67 157h-46v-157h-75zM307 390h50q64 0 64 63q0 32 -15.5 46.5t-48.5 14.5h-50v-124z" />
    <glyph glyph-name="macron" unicode="&#xaf;" 
d="M91 611v88h280v-88h-280z" />
    <glyph glyph-name="degree" unicode="&#xb0;" horiz-adv-x="347" 
d="M174 461q-59 0 -96 41t-37 105t37 105t96 41q58 0 94.5 -40.5t36.5 -104.5t-36.5 -105.5t-94.5 -41.5zM174 521q29 0 45.5 23t16.5 63t-16.5 63t-45.5 23t-46 -23t-17 -63t17 -63t46 -23z" />
    <glyph glyph-name="plusminus" unicode="&#xb1;" horiz-adv-x="801" 
d="M94 0v439h-76v91h76v65q0 147 152 147q41 0 53 -3v-92q-8 2 -29 2q-62 0 -62 -62v-57h152v61q0 70 36.5 110.5t114.5 40.5q41 0 53 -3v-92q-8 2 -29 2q-62 0 -62 -62v-57h87v-91h-87v-439h-113v439h-152v-439h-114zM625 0v740h113v-740h-113z" />
    <glyph glyph-name="twosuperior" unicode="&#xb2;" horiz-adv-x="386" 
d="M46 288v23q0 53 20 93.5t48 64.5t56 44.5t48 46.5t20 58q0 48 -44 48q-40 0 -69 -73l-79 33q50 122 154 122q62 0 95.5 -33.5t33.5 -94.5q0 -38 -17 -69.5t-42.5 -52.5t-51 -40t-44.5 -41.5t-22 -46.5h177v-82h-283z" />
    <glyph glyph-name="threesuperior" unicode="&#xb3;" horiz-adv-x="386" 
d="M191 282q-110 0 -156 114l71 35q29 -70 82 -70q30 0 47 17t17 45q0 39 -22 57t-70 18h-20v57h27q76 0 76 64q0 21 -13 35t-37 14q-41 0 -81 -53l-62 44q59 89 149 89q62 0 96.5 -33t34.5 -85q0 -70 -62 -99q72 -31 72 -111q0 -63 -41 -100.5t-108 -37.5z" />
    <glyph glyph-name="acute" unicode="&#xb4;" 
d="M166 585l81 161h119l-122 -161h-78z" />
    <glyph glyph-name="mu" unicode="&#xb5;" horiz-adv-x="519" 
d="M55 -200v731h115v-368q0 -40 14.5 -59t47.5 -19q52 0 116 59v387h114v-531h-114v74q-65 -71 -133 -78q-30 -2 -45 13v-209h-115z" />
    <glyph glyph-name="paragraph" unicode="&#xb6;" horiz-adv-x="560" 
d="M246 -200v530q-98 2 -152 54t-54 149q0 90 52.5 148.5t141.5 58.5h267v-940h-91v847h-74v-847h-90z" />
    <glyph glyph-name="periodcentered" unicode="&#xb7;" horiz-adv-x="267" 
d="M66 240v129h135v-129h-135z" />
    <glyph glyph-name="cedilla" unicode="&#xb8;" 
d="M236 -206q-72 0 -125 35l27 46q41 -28 94 -28q54 0 54 38q0 30 -32 30q-22 0 -42 -18l-36 16l27 93h54l-16 -57q21 14 52 14q28 0 47.5 -18t19.5 -52q0 -44 -35.5 -71.5t-88.5 -27.5z" />
    <glyph glyph-name="onesuperior" unicode="&#xb9;" horiz-adv-x="338" 
d="M63 288v80h68v274q-29 -12 -66 -12v81q51 3 76 28h84v-371h59v-80h-221z" />
    <glyph glyph-name="ordmasculine" unicode="&#xba;" horiz-adv-x="386" 
d="M193 364q-68 0 -112.5 50t-44.5 145q0 96 44.5 145.5t112.5 49.5t112.5 -49.5t44.5 -145.5t-44.5 -145.5t-112.5 -49.5zM193 430q73 0 73 129q0 126 -73 126t-73 -126q0 -129 73 -129z" />
    <glyph glyph-name="guillemotright" unicode="&#xbb;" horiz-adv-x="498" 
d="M234 0l125 265l-125 264h109l128 -264l-128 -265h-109zM31 0l126 265l-126 264h109l129 -264l-129 -265h-109z" />
    <glyph glyph-name="onequarter" unicode="&#xbc;" horiz-adv-x="840" 
d="M63 288v80h68v274q-29 -12 -66 -12v81q51 3 76 28h84v-371h59v-80h-221zM198 0l376 740h96l-376 -740h-96zM653 0v98h-173v62l169 292h93v-277h59v-77h-59v-98h-89zM566 173h89v156z" />
    <glyph glyph-name="onehalf" unicode="&#xbd;" horiz-adv-x="880" 
d="M63 288v80h68v274q-29 -12 -66 -12v81q51 3 76 28h84v-371h59v-80h-221zM198 0l376 740h96l-376 -740h-96zM538 0v23q0 53 20 93.5t48 64.5t56.5 44.5t48.5 46.5t20 58q0 48 -45 48q-40 0 -69 -74l-78 34q48 122 153 122q62 0 95.5 -33.5t33.5 -94.5q0 -38 -17 -69.5
t-42.5 -52.5t-51 -40t-44.5 -41.5t-22 -46.5h177v-82h-283z" />
    <glyph glyph-name="threequarters" unicode="&#xbe;" horiz-adv-x="863" 
d="M191 282q-110 0 -156 114l71 35q29 -70 82 -70q30 0 47 17t17 45q0 39 -22 57t-70 18h-20v57h27q76 0 76 64q0 21 -13 35t-37 14q-41 0 -81 -53l-62 44q59 89 149 89q62 0 96.5 -33t34.5 -85q0 -70 -62 -99q72 -31 72 -111q0 -63 -41 -100.5t-108 -37.5zM221 0l375 740
h96l-375 -740h-96zM676 0v98h-173v62l169 292h92v-277h59v-77h-59v-98h-88zM588 173h89v156z" />
    <glyph glyph-name="questiondown" unicode="&#xbf;" horiz-adv-x="484" 
d="M196 618v122h129v-122h-129zM228 -14q-91 0 -141.5 48.5t-50.5 124.5q0 34 7 60.5t23.5 49.5t28.5 35.5t37 35.5q50 47 64.5 80.5t14.5 108.5h97q2 -21 2 -60q0 -57 -23 -95t-69 -80q-37 -33 -54 -60t-17 -66t23 -61t65 -22q77 0 123 100l94 -39q-69 -160 -224 -160z" />
    <glyph glyph-name="Agrave" unicode="&#xc0;" horiz-adv-x="583" 
d="M178 177l-49 -177h-110l216 743h113l216 -743h-118l-48 177h-220zM370 280l-24 90q-44 158 -56 215h-2q-12 -55 -57 -214l-25 -91h164zM263 785l-122 161h120l80 -161h-78z" />
    <glyph glyph-name="Aacute" unicode="&#xc1;" horiz-adv-x="583" 
d="M178 177l-49 -177h-110l216 743h113l216 -743h-118l-48 177h-220zM370 280l-24 90q-44 158 -56 215h-2q-12 -55 -57 -214l-25 -91h164zM241 785l81 161h119l-122 -161h-78z" />
    <glyph glyph-name="Acircumflex" unicode="&#xc2;" horiz-adv-x="583" 
d="M178 177l-49 -177h-110l216 743h113l216 -743h-118l-48 177h-220zM370 280l-24 90q-44 158 -56 215h-2q-12 -55 -57 -214l-25 -91h164zM142 779l110 162h78l110 -162h-68l-81 79l-81 -79h-68z" />
    <glyph glyph-name="Atilde" unicode="&#xc3;" horiz-adv-x="583" 
d="M178 177l-49 -177h-110l216 743h113l216 -743h-118l-48 177h-220zM370 280l-24 90q-44 158 -56 215h-2q-12 -55 -57 -214l-25 -91h164zM359 776q-33 0 -74 28t-56 28q-35 0 -35 -54h-64q0 139 95 139q32 0 73 -28t57 -28q35 0 35 54h62q0 -139 -93 -139z" />
    <glyph glyph-name="Adieresis" unicode="&#xc4;" horiz-adv-x="583" 
d="M178 177l-49 -177h-110l216 743h113l216 -743h-118l-48 177h-220zM370 280l-24 90q-44 158 -56 215h-2q-12 -55 -57 -214l-25 -91h164zM328 783v114h102v-114h-102zM153 783v114h103v-114h-103z" />
    <glyph glyph-name="Aring" unicode="&#xc5;" horiz-adv-x="583" 
d="M177 177l-48 -177h-110l210 722q-31 29 -31 79q0 45 25.5 74t67.5 29t68 -29t26 -74q0 -50 -31 -78l210 -723h-118l-47 177h-222zM291 747q19 0 29.5 15.5t10.5 38.5q0 22 -10.5 37t-29.5 15q-18 0 -28.5 -15t-10.5 -37q0 -23 10.5 -38.5t28.5 -15.5zM371 280l-25 94
q-44 158 -56 215h-2q-12 -55 -57 -214l-26 -95h166z" />
    <glyph glyph-name="AE" unicode="&#xc6;" horiz-adv-x="860" 
d="M15 0l338 740h459v-109h-282v-191h205v-104h-205v-230h298v-106h-415v209h-189l-93 -209h-116zM268 308h145v319z" />
    <glyph glyph-name="Ccedilla" unicode="&#xc7;" horiz-adv-x="596" 
d="M265 -9q-106 17 -166 113t-60 267q0 187 74.5 285t201.5 98q107 0 164 -63.5t76 -180.5l-110 -20q-15 81 -45.5 117.5t-87.5 36.5q-76 0 -115.5 -69.5t-39.5 -202.5q0 -279 157 -279q59 0 91 37.5t49 126.5l109 -18q-49 -248 -245 -252l-10 -38q21 14 52 14
q28 0 47.5 -18t19.5 -52q0 -44 -35.5 -71.5t-88.5 -27.5q-72 0 -125 35l27 46q41 -28 94 -28q54 0 54 38q0 30 -32 30q-22 0 -42 -18l-36 16z" />
    <glyph glyph-name="Egrave" unicode="&#xc8;" horiz-adv-x="517" 
d="M69 0v740h401v-109h-283v-190h205v-106h-205v-229h298v-106h-416zM246 785l-122 161h120l80 -161h-78z" />
    <glyph glyph-name="Eacute" unicode="&#xc9;" horiz-adv-x="517" 
d="M69 0v740h401v-109h-283v-190h205v-106h-205v-229h298v-106h-416zM198 785l81 161h119l-122 -161h-78z" />
    <glyph glyph-name="Ecircumflex" unicode="&#xca;" horiz-adv-x="517" 
d="M69 0v740h401v-109h-283v-190h205v-106h-205v-229h298v-106h-416zM119 784l110 162h78l110 -162h-68l-81 79l-81 -79h-68z" />
    <glyph glyph-name="Edieresis" unicode="&#xcb;" horiz-adv-x="517" 
d="M69 0v740h401v-109h-283v-190h205v-106h-205v-229h298v-106h-416zM305 783v114h102v-114h-102zM130 783v114h103v-114h-103z" />
    <glyph glyph-name="Igrave" unicode="&#xcc;" horiz-adv-x="267" 
d="M74 0v740h118v-740h-118zM121 785l-122 161h120l80 -161h-78z" />
    <glyph glyph-name="Iacute" unicode="&#xcd;" horiz-adv-x="267" 
d="M74 0v740h118v-740h-118zM68 785l81 161h119l-122 -161h-78z" />
    <glyph glyph-name="Icircumflex" unicode="&#xce;" horiz-adv-x="267" 
d="M74 0v740h118v-740h-118zM-16 784l110 162h78l110 -162h-68l-81 79l-81 -79h-68z" />
    <glyph glyph-name="Idieresis" unicode="&#xcf;" horiz-adv-x="267" 
d="M74 0v740h118v-740h-118zM170 783v114h102v-114h-102zM-5 783v114h103v-114h-103z" />
    <glyph glyph-name="Eth" unicode="&#xd0;" horiz-adv-x="613" 
d="M69 340h-58v93h58v307h178q159 0 243 -86t84 -282q0 -198 -84.5 -285t-242.5 -87h-178v340zM187 433h121v-93h-121v-235h73q104 0 149.5 61t45.5 206q0 140 -45.5 200t-150.5 60h-72v-199z" />
    <glyph glyph-name="Ntilde" unicode="&#xd1;" horiz-adv-x="639" 
d="M69 0v740h127l201 -393q29 -57 63 -129h2v522h107v-740h-109l-220 418q-44 87 -62 125h-2v-543h-107zM388 776q-33 0 -74 28t-56 28q-35 0 -35 -54h-64q0 139 95 139q32 0 73 -28t57 -28q35 0 35 54h62q0 -139 -93 -139z" />
    <glyph glyph-name="Ograve" unicode="&#xd2;" horiz-adv-x="639" 
d="M320 -14q-124 0 -202.5 99t-78.5 285t78.5 285t202.5 99q123 0 201.5 -99t78.5 -285t-78.5 -285t-201.5 -99zM320 93q77 0 119 71.5t42 205.5t-42 204.5t-119 70.5q-78 0 -120.5 -70.5t-42.5 -204.5t42.5 -205.5t120.5 -71.5zM308 785l-122 161h120l80 -161h-78z" />
    <glyph glyph-name="Oacute" unicode="&#xd3;" horiz-adv-x="639" 
d="M320 -14q-124 0 -202.5 99t-78.5 285t78.5 285t202.5 99q123 0 201.5 -99t78.5 -285t-78.5 -285t-201.5 -99zM320 93q77 0 119 71.5t42 205.5t-42 204.5t-119 70.5q-78 0 -120.5 -70.5t-42.5 -204.5t42.5 -205.5t120.5 -71.5zM255 785l81 161h119l-122 -161h-78z" />
    <glyph glyph-name="Ocircumflex" unicode="&#xd4;" horiz-adv-x="639" 
d="M320 -14q-124 0 -202.5 99t-78.5 285t78.5 285t202.5 99q123 0 201.5 -99t78.5 -285t-78.5 -285t-201.5 -99zM320 93q77 0 119 71.5t42 205.5t-42 204.5t-119 70.5q-78 0 -120.5 -70.5t-42.5 -204.5t42.5 -205.5t120.5 -71.5zM171 784l110 162h78l110 -162h-68l-81 79
l-81 -79h-68z" />
    <glyph glyph-name="Otilde" unicode="&#xd5;" horiz-adv-x="639" 
d="M320 -14q-124 0 -202.5 99t-78.5 285t78.5 285t202.5 99q123 0 201.5 -99t78.5 -285t-78.5 -285t-201.5 -99zM320 93q77 0 119 71.5t42 205.5t-42 204.5t-119 70.5q-78 0 -120.5 -70.5t-42.5 -204.5t42.5 -205.5t120.5 -71.5zM388 776q-33 0 -74 28t-56 28q-35 0 -35 -54
h-64q0 139 95 139q32 0 73 -28t57 -28q35 0 35 54h62q0 -139 -93 -139z" />
    <glyph glyph-name="Odieresis" unicode="&#xd6;" horiz-adv-x="639" 
d="M320 -14q-124 0 -202.5 99t-78.5 285t78.5 285t202.5 99q123 0 201.5 -99t78.5 -285t-78.5 -285t-201.5 -99zM320 93q77 0 119 71.5t42 205.5t-42 204.5t-119 70.5q-78 0 -120.5 -70.5t-42.5 -204.5t42.5 -205.5t120.5 -71.5zM357 783v114h102v-114h-102zM182 783v114
h103v-114h-103z" />
    <glyph glyph-name="multiply" unicode="&#xd7;" horiz-adv-x="550" 
d="M123 120l-64 64l152 152l-152 151l64 64l152 -152l151 152l64 -64l-152 -151l152 -152l-64 -64l-151 152z" />
    <glyph glyph-name="Oslash" unicode="&#xd8;" horiz-adv-x="639" 
d="M526 648q74 -101 74 -278q0 -186 -78.5 -285t-201.5 -99q-86 0 -153 50l-50 -82l-65 40l60 99q-73 102 -73 277q0 186 78.5 285t202.5 99q86 0 151 -49l51 82l65 -40zM181 200l235 407q-40 40 -96 40q-78 0 -121.5 -71.5t-43.5 -205.5q0 -101 26 -170zM457 540l-236 -407
q39 -42 99 -42q77 0 120 72.5t43 206.5q0 103 -26 170z" />
    <glyph glyph-name="Ugrave" unicode="&#xd9;" horiz-adv-x="607" 
d="M304 -13q-243 0 -243 262v491h118v-480q0 -87 29.5 -127.5t97.5 -40.5t97 40.5t29 125.5v482h113v-489q0 -126 -59 -195t-182 -69zM291 785l-122 161h120l80 -161h-78z" />
    <glyph glyph-name="Uacute" unicode="&#xda;" horiz-adv-x="607" 
d="M304 -13q-243 0 -243 262v491h118v-480q0 -87 29.5 -127.5t97.5 -40.5t97 40.5t29 125.5v482h113v-489q0 -126 -59 -195t-182 -69zM238 785l81 161h119l-122 -161h-78z" />
    <glyph glyph-name="Ucircumflex" unicode="&#xdb;" horiz-adv-x="607" 
d="M304 -13q-243 0 -243 262v491h118v-480q0 -87 29.5 -127.5t97.5 -40.5t97 40.5t29 125.5v482h113v-489q0 -126 -59 -195t-182 -69zM156 784l110 162h78l110 -162h-68l-81 79l-81 -79h-68z" />
    <glyph glyph-name="Udieresis" unicode="&#xdc;" horiz-adv-x="607" 
d="M304 -13q-243 0 -243 262v491h118v-480q0 -87 29.5 -127.5t97.5 -40.5t97 40.5t29 125.5v482h113v-489q0 -126 -59 -195t-182 -69zM340 783v114h102v-114h-102zM165 783v114h103v-114h-103z" />
    <glyph glyph-name="Yacute" unicode="&#xdd;" horiz-adv-x="551" 
d="M216 0v298l-207 442h121l147 -335h2l147 335h115l-207 -441v-299h-118zM210 785l81 161h119l-122 -161h-78z" />
    <glyph glyph-name="Thorn" unicode="&#xde;" horiz-adv-x="563" 
d="M69 0v740h116v-127h99q110 0 176.5 -55t66.5 -173q0 -125 -69 -179.5t-178 -54.5h-95v-151h-116zM185 254h99q68 0 99 30t31 98q0 66 -31.5 94.5t-99.5 28.5h-98v-251z" />
    <glyph glyph-name="germandbls" unicode="&#xdf;" horiz-adv-x="557" 
d="M335 -10q-84 0 -131 32l47 79q35 -21 75 -21t67 32t27 93q0 76 -41.5 109.5t-135.5 38.5v87q123 1 123 109q0 44 -24.5 68.5t-69.5 24.5q-100 0 -100 -124v-518h-114v515q0 109 57.5 167t157.5 58q93 0 146.5 -46t53.5 -130q0 -58 -29 -100.5t-73 -58.5
q73 -16 115.5 -66.5t42.5 -131.5q0 -97 -51.5 -157t-142.5 -60z" />
    <glyph glyph-name="agrave" unicode="&#xe0;" horiz-adv-x="484" 
d="M156 -6q-58 0 -93 35.5t-35 100.5q0 166 291 221v23q0 37 -15.5 53t-50.5 16q-80 0 -150 -61l-57 70q96 89 221 89q163 0 163 -167v-244q0 -91 13 -130h-113q-11 37 -11 67q-57 -73 -163 -73zM201 84q67 0 118 55v134q-180 -39 -180 -124q0 -65 62 -65zM230 585l-122 161
h120l80 -161h-78z" />
    <glyph glyph-name="aacute" unicode="&#xe1;" horiz-adv-x="484" 
d="M156 -6q-58 0 -93 35.5t-35 100.5q0 166 291 221v23q0 37 -15.5 53t-50.5 16q-80 0 -150 -61l-57 70q96 89 221 89q163 0 163 -167v-244q0 -91 13 -130h-113q-11 37 -11 67q-57 -73 -163 -73zM201 84q67 0 118 55v134q-180 -39 -180 -124q0 -65 62 -65zM177 585l81 161
h119l-122 -161h-78z" />
    <glyph glyph-name="acircumflex" unicode="&#xe2;" horiz-adv-x="484" 
d="M156 -6q-58 0 -93 35.5t-35 100.5q0 166 291 221v23q0 37 -15.5 53t-50.5 16q-80 0 -150 -61l-57 70q96 89 221 89q163 0 163 -167v-244q0 -91 13 -130h-113q-11 37 -11 67q-57 -73 -163 -73zM201 84q67 0 118 55v134q-180 -39 -180 -124q0 -65 62 -65zM93 584l110 162
h78l110 -162h-68l-81 79l-81 -79h-68z" />
    <glyph glyph-name="atilde" unicode="&#xe3;" horiz-adv-x="484" 
d="M156 -6q-58 0 -93 35.5t-35 100.5q0 166 291 221v23q0 37 -15.5 53t-50.5 16q-80 0 -150 -61l-57 70q96 89 221 89q163 0 163 -167v-244q0 -91 13 -130h-113q-11 37 -11 67q-57 -73 -163 -73zM201 84q67 0 118 55v134q-180 -39 -180 -124q0 -65 62 -65zM310 576
q-33 0 -74 28t-56 28q-35 0 -35 -54h-64q0 139 95 139q32 0 73 -28t57 -28q35 0 35 54h62q0 -139 -93 -139z" />
    <glyph glyph-name="adieresis" unicode="&#xe4;" horiz-adv-x="484" 
d="M156 -6q-58 0 -93 35.5t-35 100.5q0 166 291 221v23q0 37 -15.5 53t-50.5 16q-80 0 -150 -61l-57 70q96 89 221 89q163 0 163 -167v-244q0 -91 13 -130h-113q-11 37 -11 67q-57 -73 -163 -73zM201 84q67 0 118 55v134q-180 -39 -180 -124q0 -65 62 -65zM279 583v114h102
v-114h-102zM104 583v114h103v-114h-103z" />
    <glyph glyph-name="aring" unicode="&#xe5;" horiz-adv-x="484" 
d="M156 -6q-58 0 -93 35.5t-35 100.5q0 166 291 221v23q0 37 -15.5 53t-50.5 16q-80 0 -150 -61l-57 70q96 89 221 89q163 0 163 -167v-244q0 -91 13 -130h-113q-11 37 -11 67q-57 -73 -163 -73zM201 84q67 0 118 55v134q-180 -39 -180 -124q0 -65 62 -65zM242 573
q-41 0 -67 29.5t-26 73.5q0 45 25.5 74t67.5 29t68 -29t26 -74q0 -44 -26.5 -73.5t-67.5 -29.5zM242 622q19 0 29.5 15.5t10.5 38.5q0 22 -10.5 37t-29.5 15q-18 0 -28.5 -15t-10.5 -37q0 -23 10.5 -38.5t28.5 -15.5z" />
    <glyph glyph-name="ae" unicode="&#xe6;" horiz-adv-x="765" 
d="M357 90q-81 -96 -201 -96q-58 0 -93 35.5t-35 100.5q0 166 291 221v23q0 37 -15.5 53t-50.5 16q-80 0 -150 -61l-57 70q96 89 226 89q95 0 123 -61q58 61 137 61q93 0 147.5 -70t54.5 -209v-31h-306q4 -74 33 -111.5t79 -37.5q40 0 67 17.5t54 54.5l72 -52
q-71 -113 -199 -113q-121 0 -177 101zM429 311h199q-8 135 -96 135q-41 0 -69 -32.5t-34 -102.5zM319 272q-180 -40 -180 -123q0 -65 62 -65q71 0 132 66q-14 51 -14 115v7z" />
    <glyph glyph-name="ccedilla" unicode="&#xe7;" horiz-adv-x="468" 
d="M202 -7q-75 16 -122.5 85.5t-47.5 186.5q0 138 63.5 207t155.5 69q83 0 126.5 -44t64.5 -122l-102 -25q-13 49 -33.5 71.5t-57.5 22.5q-47 0 -75 -43.5t-28 -135.5q0 -182 103 -182q37 0 60.5 22.5t35.5 75.5l99 -25q-42 -161 -189 -167l-11 -40q21 14 52 14
q28 0 47.5 -18t19.5 -52q0 -44 -35.5 -71.5t-88.5 -27.5q-72 0 -125 35l27 46q41 -28 94 -28q54 0 54 38q0 30 -32 30q-22 0 -42 -18l-36 16z" />
    <glyph glyph-name="egrave" unicode="&#xe8;" horiz-adv-x="482" 
d="M251 -11q-97 0 -158 69.5t-61 206.5q0 138 63.5 207t153.5 69q93 0 147 -70t54 -209v-31h-306q4 -74 33 -111.5t79 -37.5q40 0 67 17.5t54 54.5l72 -52q-31 -50 -83.5 -81.5t-114.5 -31.5zM145 311h199q-8 135 -96 135q-41 0 -69 -32.5t-34 -102.5zM229 585l-122 161h120
l80 -161h-78z" />
    <glyph glyph-name="eacute" unicode="&#xe9;" horiz-adv-x="482" 
d="M251 -11q-97 0 -158 69.5t-61 206.5q0 138 63.5 207t153.5 69q93 0 147 -70t54 -209v-31h-306q4 -74 33 -111.5t79 -37.5q40 0 67 17.5t54 54.5l72 -52q-31 -50 -83.5 -81.5t-114.5 -31.5zM145 311h199q-8 135 -96 135q-41 0 -69 -32.5t-34 -102.5zM176 585l81 161h119
l-122 -161h-78z" />
    <glyph glyph-name="ecircumflex" unicode="&#xea;" horiz-adv-x="482" 
d="M251 -11q-97 0 -158 69.5t-61 206.5q0 138 63.5 207t153.5 69q93 0 147 -70t54 -209v-31h-306q4 -74 33 -111.5t79 -37.5q40 0 67 17.5t54 54.5l72 -52q-31 -50 -83.5 -81.5t-114.5 -31.5zM145 311h199q-8 135 -96 135q-41 0 -69 -32.5t-34 -102.5zM92 584l110 162h78
l110 -162h-68l-81 79l-81 -79h-68z" />
    <glyph glyph-name="edieresis" unicode="&#xeb;" horiz-adv-x="482" 
d="M251 -11q-97 0 -158 69.5t-61 206.5q0 138 63.5 207t153.5 69q93 0 147 -70t54 -209v-31h-306q4 -74 33 -111.5t79 -37.5q40 0 67 17.5t54 54.5l72 -52q-31 -50 -83.5 -81.5t-114.5 -31.5zM145 311h199q-8 135 -96 135q-41 0 -69 -32.5t-34 -102.5zM278 583v114h102v-114
h-102zM103 583v114h103v-114h-103z" />
    <glyph glyph-name="igrave" unicode="&#xec;" horiz-adv-x="239" 
d="M62 0v530h114v-530h-114zM92 585l-122 161h120l80 -161h-78z" />
    <glyph glyph-name="iacute" unicode="&#xed;" horiz-adv-x="239" 
d="M62 0v530h114v-530h-114zM69 585l81 161h119l-122 -161h-78z" />
    <glyph glyph-name="icircumflex" unicode="&#xee;" horiz-adv-x="239" 
d="M62 0v530h114v-530h-114zM-30 584l110 162h78l110 -162h-68l-81 79l-81 -79h-68z" />
    <glyph glyph-name="idieresis" unicode="&#xef;" horiz-adv-x="239" 
d="M62 0v530h114v-530h-114zM156 583v114h102v-114h-102zM-19 583v114h103v-114h-103z" />
    <glyph glyph-name="eth" unicode="&#xf0;" horiz-adv-x="507" 
d="M300 582l-72 -41l-38 68l59 34q-20 22 -53 49l61 64q40 -29 75 -65l74 43l38 -68l-62 -36q92 -133 92 -357q0 -137 -60 -210.5t-160 -73.5q-101 0 -161.5 70.5t-60.5 192.5q0 123 55.5 189.5t146.5 66.5q38 0 73.5 -18t54.5 -52q-15 74 -62 144zM254 81q52 0 79.5 45
t27.5 128q0 80 -27.5 125t-79.5 45t-80 -43.5t-28 -127.5q0 -82 27 -127t81 -45z" />
    <glyph glyph-name="ntilde" unicode="&#xf1;" horiz-adv-x="517" 
d="M57 0v530h114v-69q27 33 70 56.5t93 23.5q62 0 96 -38t34 -111v-392h-114v366q0 40 -14.5 58.5t-46.5 18.5q-56 0 -118 -62v-381h-114zM326 576q-33 0 -74 28t-56 28q-35 0 -35 -54h-64q0 139 95 139q32 0 73 -28t57 -28q35 0 35 54h62q0 -139 -93 -139z" />
    <glyph glyph-name="ograve" unicode="&#xf2;" horiz-adv-x="508" 
d="M254 -11q-96 0 -159 70.5t-63 205.5q0 136 63 206t159 70t158.5 -70t62.5 -206q0 -135 -63 -205.5t-158 -70.5zM254 82q107 0 107 183q0 180 -107 180q-108 0 -108 -180q0 -183 108 -183zM242 585l-122 161h120l80 -161h-78z" />
    <glyph glyph-name="oacute" unicode="&#xf3;" horiz-adv-x="508" 
d="M254 -11q-96 0 -159 70.5t-63 205.5q0 136 63 206t159 70t158.5 -70t62.5 -206q0 -135 -63 -205.5t-158 -70.5zM254 82q107 0 107 183q0 180 -107 180q-108 0 -108 -180q0 -183 108 -183zM189 585l81 161h119l-122 -161h-78z" />
    <glyph glyph-name="ocircumflex" unicode="&#xf4;" horiz-adv-x="508" 
d="M254 -11q-96 0 -159 70.5t-63 205.5q0 136 63 206t159 70t158.5 -70t62.5 -206q0 -135 -63 -205.5t-158 -70.5zM254 82q107 0 107 183q0 180 -107 180q-108 0 -108 -180q0 -183 108 -183zM105 584l110 162h78l110 -162h-68l-81 79l-81 -79h-68z" />
    <glyph glyph-name="otilde" unicode="&#xf5;" horiz-adv-x="508" 
d="M254 -11q-96 0 -159 70.5t-63 205.5q0 136 63 206t159 70t158.5 -70t62.5 -206q0 -135 -63 -205.5t-158 -70.5zM254 82q107 0 107 183q0 180 -107 180q-108 0 -108 -180q0 -183 108 -183zM322 576q-33 0 -74 28t-56 28q-35 0 -35 -54h-64q0 139 95 139q32 0 73 -28
t57 -28q35 0 35 54h62q0 -139 -93 -139z" />
    <glyph glyph-name="odieresis" unicode="&#xf6;" horiz-adv-x="508" 
d="M254 -11q-96 0 -159 70.5t-63 205.5q0 136 63 206t159 70t158.5 -70t62.5 -206q0 -135 -63 -205.5t-158 -70.5zM254 82q107 0 107 183q0 180 -107 180q-108 0 -108 -180q0 -183 108 -183zM291 583v114h102v-114h-102zM116 583v114h103v-114h-103z" />
    <glyph glyph-name="divide" unicode="&#xf7;" horiz-adv-x="550" 
d="M222 466v106h105v-106h-105zM51 288v95h448v-95h-448zM222 98v107h105v-107h-105z" />
    <glyph glyph-name="oslash" unicode="&#xf8;" horiz-adv-x="508" 
d="M421 460q54 -74 54 -195q0 -135 -63 -205.5t-158 -70.5q-67 0 -120 35l-44 -66l-56 36l51 78q-53 75 -53 193q0 136 63 206t159 70q67 0 117 -34l46 67l55 -36zM154 169l164 253q-25 25 -64 25q-54 0 -82.5 -47.5t-28.5 -134.5q0 -52 11 -96zM352 362l-166 -253
q26 -29 68 -29q54 0 82 48t28 137q0 57 -12 97z" />
    <glyph glyph-name="ugrave" unicode="&#xf9;" horiz-adv-x="517" 
d="M183 -11q-62 0 -96 38t-34 111v392h114v-368q0 -40 14.5 -58t48.5 -18q52 0 116 62v382h114v-530h-114v69q-70 -80 -163 -80zM246 585l-122 161h120l80 -161h-78z" />
    <glyph glyph-name="uacute" unicode="&#xfa;" horiz-adv-x="517" 
d="M183 -11q-62 0 -96 38t-34 111v392h114v-368q0 -40 14.5 -58t48.5 -18q52 0 116 62v382h114v-530h-114v69q-70 -80 -163 -80zM193 585l81 161h119l-122 -161h-78z" />
    <glyph glyph-name="ucircumflex" unicode="&#xfb;" horiz-adv-x="517" 
d="M183 -11q-62 0 -96 38t-34 111v392h114v-368q0 -40 14.5 -58t48.5 -18q52 0 116 62v382h114v-530h-114v69q-70 -80 -163 -80zM108 584l110 162h78l110 -162h-68l-81 79l-81 -79h-68z" />
    <glyph glyph-name="udieresis" unicode="&#xfc;" horiz-adv-x="517" 
d="M183 -11q-62 0 -96 38t-34 111v392h114v-368q0 -40 14.5 -58t48.5 -18q52 0 116 62v382h114v-530h-114v69q-70 -80 -163 -80zM294 583v114h102v-114h-102zM119 583v114h103v-114h-103z" />
    <glyph glyph-name="yacute" unicode="&#xfd;" horiz-adv-x="468" 
d="M103 -202q-60 0 -104 14l22 90q39 -9 71 -9q29 0 44.5 15t27.5 51l11 35l-166 536h118l66 -241q27 -97 40 -162h2q18 76 42 167l66 236h110l-184 -585q-25 -78 -61 -112.5t-105 -34.5zM169 585l81 161h119l-122 -161h-78z" />
    <glyph glyph-name="thorn" unicode="&#xfe;" horiz-adv-x="521" 
d="M57 -200v940h114v-275q59 76 142 76q81 0 128.5 -69t47.5 -206t-50 -205.5t-133 -68.5q-82 0 -135 67v-259h-114zM275 85q99 0 99 180q0 179 -100 179q-25 0 -55 -19t-48 -41v-242q46 -57 104 -57z" />
    <glyph glyph-name="ydieresis" unicode="&#xff;" horiz-adv-x="468" 
d="M103 -202q-60 0 -104 14l22 90q39 -9 71 -9q29 0 44.5 15t27.5 51l11 35l-166 536h118l66 -241q27 -97 40 -162h2q18 76 42 167l66 236h110l-184 -585q-25 -78 -61 -112.5t-105 -34.5zM271 583v114h102v-114h-102zM96 583v114h103v-114h-103z" />
    <glyph glyph-name="dotlessi" unicode="&#x131;" horiz-adv-x="239" 
d="M62 0v530h114v-530h-114z" />
    <glyph glyph-name="Lslash" unicode="&#x141;" horiz-adv-x="498" 
d="M69 0v309l-58 -23v93l58 24v337h118v-297l109 48v-95l-109 -46v-244h285v-106h-403z" />
    <glyph glyph-name="lslash" unicode="&#x142;" horiz-adv-x="280" 
d="M83 0v291l-62 -26v90l62 27v358h114v-321l61 27v-90l-61 -27v-329h-114z" />
    <glyph glyph-name="OE" unicode="&#x152;" horiz-adv-x="929" 
d="M492 673v67h389v-109h-283v-191h206v-104h-206v-230h299v-106h-405v72q-57 -86 -172 -86q-124 0 -202.5 99t-78.5 285t78.5 285t202.5 99q112 0 172 -81zM320 93q77 0 119 71.5t42 205.5t-42 204.5t-119 70.5q-78 0 -120.5 -70.5t-42.5 -204.5t42.5 -205.5t120.5 -71.5z
" />
    <glyph glyph-name="oe" unicode="&#x153;" horiz-adv-x="807" 
d="M415 456q59 85 159 85q93 0 147.5 -70t54.5 -209v-31h-306q4 -74 33 -111.5t79 -37.5q40 0 67 17.5t54 54.5l72 -52q-71 -113 -199 -113q-105 0 -162 83q-57 -83 -160 -83q-96 0 -159 70.5t-63 205.5q0 136 63 206t159 70q106 0 161 -85zM471 311h199q-8 135 -96 135
q-41 0 -69 -32.5t-34 -102.5zM254 82q107 0 107 183q0 180 -107 180q-108 0 -108 -180q0 -183 108 -183z" />
    <glyph glyph-name="Scaron" unicode="&#x160;" horiz-adv-x="567" 
d="M292 -13q-181 0 -262 178l99 49q58 -124 163 -124q56 0 87.5 25t31.5 71q0 27 -10.5 48t-34 38t-42.5 27.5t-55 26.5q-98 45 -133 74q-75 60 -75 159q0 86 61.5 140.5t156.5 54.5q163 0 236 -161l-99 -51q-24 52 -56.5 80t-82.5 28q-46 0 -73 -23t-27 -63q0 -48 34 -77.5
t102 -61.5q33 -15 43 -19.5t40.5 -20.5t42 -26t33 -30t30.5 -38t16.5 -44.5t7.5 -56.5q0 -86 -63 -144.5t-171 -58.5zM245 786l-110 162h69l81 -80l81 80h67l-110 -162h-78z" />
    <glyph glyph-name="scaron" unicode="&#x161;" horiz-adv-x="450" 
d="M225 -11q-139 0 -215 103l70 59q60 -74 147 -74t87 60q0 31 -28 51t-68 32.5t-80 28.5t-68 51.5t-28 89.5q0 70 51.5 110.5t130.5 40.5q56 0 105.5 -24t81.5 -66l-68 -62q-53 62 -120 62q-73 0 -73 -55q0 -26 20 -44.5t50 -27.5t65.5 -23t65.5 -29.5t50 -48.5t20 -79
q0 -72 -56.5 -113.5t-139.5 -41.5zM185 586l-110 162h69l81 -80l81 80h67l-110 -162h-78z" />
    <glyph glyph-name="Ydieresis" unicode="&#x178;" horiz-adv-x="551" 
d="M216 0v298l-207 442h121l147 -335h2l147 335h115l-207 -441v-299h-118zM312 783v114h102v-114h-102zM137 783v114h103v-114h-103z" />
    <glyph glyph-name="Zcaron" unicode="&#x17d;" horiz-adv-x="539" 
d="M27 0v86l334 545h-310v109h452v-88l-330 -546h330v-106h-476zM230 786l-110 162h69l81 -80l81 80h67l-110 -162h-78z" />
    <glyph glyph-name="zcaron" unicode="&#x17e;" horiz-adv-x="441" 
d="M27 0v71l238 368h-218v91h354v-72l-239 -368h252v-90h-387zM181 586l-110 162h69l81 -80l81 80h67l-110 -162h-78z" />
    <glyph glyph-name="florin" unicode="&#x192;" horiz-adv-x="362" 
d="M103 345h-79l13 89h78l21 161q9 75 51 111.5t125 36.5q23 0 59 -4l-13 -92q-27 3 -36 3q-67 0 -74 -63l-20 -153h96l-12 -89h-96l-55 -408q-10 -70 -49.5 -104.5t-122.5 -34.5q-42 0 -62 4l14 90q16 -4 33 -4q67 0 77 70z" />
    <glyph glyph-name="circumflex" unicode="&#x2c6;" 
d="M82 584l110 162h78l110 -162h-68l-81 79l-81 -79h-68z" />
    <glyph glyph-name="caron" unicode="&#x2c7;" 
d="M192 586l-110 162h69l81 -80l81 80h67l-110 -162h-78z" />
    <glyph glyph-name="breve" unicode="&#x2d8;" 
d="M232 579q-68 0 -103.5 45.5t-39.5 125.5h67q10 -95 76 -95t75 95h67q-4 -80 -39.5 -125.5t-102.5 -45.5z" />
    <glyph glyph-name="dotaccent" unicode="&#x2d9;" 
d="M170 584v108h122v-108h-122z" />
    <glyph glyph-name="ring" unicode="&#x2da;" 
d="M231 573q-41 0 -67 29.5t-26 73.5q0 45 25.5 74t67.5 29t68 -29t26 -74q0 -44 -26.5 -73.5t-67.5 -29.5zM231 622q19 0 29.5 15.5t10.5 38.5q0 22 -10.5 37t-29.5 15q-18 0 -28.5 -15t-10.5 -37q0 -23 10.5 -38.5t28.5 -15.5z" />
    <glyph glyph-name="ogonek" unicode="&#x2db;" 
d="M222 -191q-46 0 -70.5 21.5t-24.5 57.5q0 62 74 114h60q-56 -40 -56 -94q0 -43 42 -43q34 0 75 25l27 -37q-61 -44 -127 -44z" />
    <glyph glyph-name="tilde" unicode="&#x2dc;" 
d="M299 576q-33 0 -74 28t-56 28q-35 0 -35 -54h-64q0 139 95 139q32 0 73 -28t57 -28q35 0 35 54h62q0 -139 -93 -139z" />
    <glyph glyph-name="hungarumlaut" unicode="&#x2dd;" 
d="M210 585l87 161h121l-130 -161h-78zM49 585l83 161h122l-126 -161h-79z" />
    <glyph glyph-name="pi" unicode="&#x3c0;" horiz-adv-x="717" 
d="M358 -14q-138 0 -229.5 110.5t-91.5 272.5t92.5 273.5t229.5 111.5q138 0 229.5 -110.5t91.5 -272.5t-92.5 -273.5t-229.5 -111.5zM359 41q113 0 187 94t74 234t-74.5 235t-187.5 95t-187 -94t-74 -234t74.5 -235t187.5 -95zM243 159v419h131q136 0 136 -128
q0 -132 -141 -132h-50v-159h-76zM319 385h53q63 0 63 62t-64 62h-52v-124z" />
    <glyph glyph-name="endash" unicode="&#x2013;" horiz-adv-x="569" 
d="M47 262v99h474v-99h-474z" />
    <glyph glyph-name="emdash" unicode="&#x2014;" horiz-adv-x="768" 
d="M46 262v99h675v-99h-675z" />
    <glyph glyph-name="quoteleft" unicode="&#x2018;" horiz-adv-x="243" 
d="M61 500v119l58 121h54l-35 -112h43v-128h-120z" />
    <glyph glyph-name="quoteright" unicode="&#x2019;" horiz-adv-x="243" 
d="M70 500l35 112h-44v128h120v-119l-57 -121h-54z" />
    <glyph glyph-name="quotesinglbase" unicode="&#x201a;" horiz-adv-x="243" 
d="M70 -112l35 112h-44v128h120v-119l-57 -121h-54z" />
    <glyph glyph-name="quotedblleft" unicode="&#x201c;" horiz-adv-x="439" 
d="M258 500v119l57 121h53l-34 -112h43v-128h-119zM61 500v119l58 121h54l-35 -112h43v-128h-120z" />
    <glyph glyph-name="quotedblright" unicode="&#x201d;" horiz-adv-x="439" 
d="M266 500l35 112h-43v128h119v-119l-57 -121h-54zM70 500l35 112h-44v128h120v-119l-57 -121h-54z" />
    <glyph glyph-name="quotedblbase" unicode="&#x201e;" horiz-adv-x="439" 
d="M266 -112l35 112h-43v128h119v-119l-57 -121h-54zM70 -112l35 112h-44v128h120v-119l-57 -121h-54z" />
    <glyph glyph-name="dagger" unicode="&#x2020;" horiz-adv-x="505" 
d="M192 -200l18 596l-177 -12v105l177 -13l-18 264h120l-17 -264l177 13v-105l-177 12l17 -596h-120z" />
    <glyph glyph-name="daggerdbl" unicode="&#x2021;" horiz-adv-x="504" 
d="M192 -200l18 222l-167 -13v102l167 -13l-14 174l14 170l-167 -12v102l167 -13l-18 221h120l-18 -221l167 13v-102l-167 12l15 -170l-15 -174l167 13v-102l-167 13l18 -222h-120z" />
    <glyph glyph-name="bullet" unicode="&#x2022;" 
d="M231 227q-53 0 -88 35t-35 88q0 54 35 89t88 35q54 0 89 -35t35 -89q0 -53 -35 -88t-89 -35z" />
    <glyph glyph-name="ellipsis" unicode="&#x2026;" horiz-adv-x="723" 
d="M541 0v128h122v-128h-122zM300 0v128h122v-128h-122zM59 0v128h122v-128h-122z" />
    <glyph glyph-name="perthousand" unicode="&#x2030;" horiz-adv-x="1231" 
d="M194 283q-76 0 -117.5 59.5t-41.5 174.5t41.5 174.5t117.5 59.5t117 -59.5t41 -174.5t-41 -174.5t-117 -59.5zM203 0l376 740h96l-376 -740h-96zM1038 -9q-76 0 -117.5 59.5t-41.5 174.5q0 114 41.5 173.5t117.5 59.5t116.5 -59.5t40.5 -173.5q0 -115 -40.5 -174.5
t-116.5 -59.5zM686 -9q-76 0 -117.5 59.5t-41.5 174.5q0 114 41.5 173.5t117.5 59.5t116.5 -59.5t40.5 -173.5q0 -115 -40.5 -174.5t-116.5 -59.5zM194 369q34 0 48.5 34.5t14.5 113.5q0 78 -15 112.5t-48 34.5q-34 0 -48.5 -34t-14.5 -113q0 -78 15 -113t48 -35zM1038 76
q34 0 48.5 35t14.5 114q0 77 -15 111.5t-48 34.5q-35 0 -49.5 -33.5t-14.5 -112.5t15 -114t49 -35zM686 76q34 0 48.5 35t14.5 114q0 77 -15 111.5t-48 34.5q-35 0 -49.5 -33.5t-14.5 -112.5t15 -114t49 -35z" />
    <glyph glyph-name="guilsinglleft" unicode="&#x2039;" horiz-adv-x="296" 
d="M153 0l-129 265l129 264h109l-125 -264l125 -265h-109z" />
    <glyph glyph-name="guilsinglright" unicode="&#x203a;" horiz-adv-x="296" 
d="M33 0l126 265l-126 264h109l130 -264l-130 -265h-109z" />
    <glyph glyph-name="fraction" unicode="&#x2044;" horiz-adv-x="457" 
d="M-7 0l368 740h103l-368 -740h-103z" />
    <glyph glyph-name="Euro" unicode="&#x20ac;" horiz-adv-x="617" 
d="M108 402h-92v83h99q18 137 81 203t160 66q95 0 151.5 -58.5t72.5 -161.5l-108 -18q-11 65 -38 99.5t-77 34.5q-106 0 -128 -165h158v-83h-165v-29q0 -27 1 -40h164v-83h-158q11 -83 42.5 -122.5t88.5 -39.5q97 0 122 141l106 -14q-17 -101 -76 -165t-152 -64
q-207 0 -244 264h-100v83h93q-1 13 -1 39v30z" />
    <glyph glyph-name="trademark" unicode="&#x2122;" horiz-adv-x="768" 
d="M354 313v427h103l81 -311l81 311h103v-427h-76v295l-78 -295h-65l-79 295v-295h-70zM124 313v355h-100v72h280v-72h-101v-355h-79z" />
    <glyph glyph-name="Omega" unicode="&#x2126;" horiz-adv-x="770" 
d="M176 578v29l167 -13l-18 146h120l-18 -146l167 13v-29h28l-13 -167l146 18v-120l-146 18l13 -167h-28v-26l-167 13l18 -147h-120l18 147l-167 -13v26h-27l13 167l-147 -18v120l147 -18l-13 167h27zM534 519l-112 8v-121h120zM348 406v121l-111 -8l-9 -113h120zM422 332
v-119l112 8l8 111h-120zM236 221l112 -8v119h-120z" />
    <glyph glyph-name="partialdiff" unicode="&#x2202;" horiz-adv-x="770" 
d="M176 578v29l167 -13l-18 146h120l-18 -146l167 13v-29h28l-13 -167l146 18v-120l-146 18l13 -167h-28v-26l-167 13l18 -147h-120l18 147l-167 -13v26h-27l13 167l-147 -18v120l147 -18l-13 167h27zM534 519l-112 8v-121h120zM348 406v121l-111 -8l-9 -113h120zM422 332
v-119l112 8l8 111h-120zM236 221l112 -8v119h-120z" />
    <glyph glyph-name="Delta" unicode="&#x2206;" horiz-adv-x="536" 
d="M359 617v107h115v-107h-115zM94 0v439h-76v91h76v65q0 147 152 147q41 0 53 -3v-92q-8 2 -29 2q-62 0 -62 -62v-57h87v-91h-87v-439h-114zM339 -201q-47 0 -59 4v86q9 -3 32 -3q48 0 48 59v585h113v-596q0 -67 -29 -101t-105 -34z" />
    <glyph glyph-name="product" unicode="&#x220f;" horiz-adv-x="474" 
d="M237 292q-83 0 -138 66.5t-55 164.5q0 97 55.5 164t138.5 67t138 -66.5t55 -163.5q0 -98 -55.5 -165t-138.5 -67zM238 325q67 0 111.5 57t44.5 141q0 83 -45 140.5t-112 57.5t-111.5 -56.5t-44.5 -140.5t44.5 -141.5t112.5 -57.5zM161 403v249h78q81 0 81 -78
q0 -52 -39 -70l43 -101h-50l-41 94h-25v-94h-47zM208 536h28q38 0 38 37q0 35 -38 35h-28v-72z" />
    <glyph glyph-name="summation" unicode="&#x2211;" horiz-adv-x="770" 
d="M176 578v29l167 -13l-18 146h120l-18 -146l167 13v-29h28l-13 -167l146 18v-120l-146 18l13 -167h-28v-26l-167 13l18 -147h-120l18 147l-167 -13v26h-27l13 167l-147 -18v120l147 -18l-13 167h27zM534 519l-112 8v-121h120zM348 406v121l-111 -8l-9 -113h120zM422 332
v-119l112 8l8 111h-120zM236 221l112 -8v119h-120z" />
    <glyph glyph-name="minus" unicode="&#x2212;" horiz-adv-x="550" 
d="M51 288v95h448v-95h-448z" />
    <glyph glyph-name="radical" unicode="&#x221a;" horiz-adv-x="514" 
d="M166 -2l-158 532h115l72 -268q21 -84 35 -144h2q13 59 34 143l133 479h107l-219 -742h-121z" />
    <glyph glyph-name="infinity" unicode="&#x221e;" horiz-adv-x="801" 
d="M624 617v107h115v-107h-115zM94 0v439h-76v91h76v65q0 147 152 147q41 0 53 -3v-92q-8 2 -29 2q-62 0 -62 -62v-57h152v61q0 70 36.5 110.5t114.5 40.5q41 0 53 -3v-92q-8 2 -29 2q-62 0 -62 -62v-57h87v-91h-87v-439h-113v439h-152v-439h-114zM625 0v530h113v-530h-113z
" />
    <glyph glyph-name="integral" unicode="&#x222b;" horiz-adv-x="770" 
d="M176 578v29l167 -13l-18 146h120l-18 -146l167 13v-29h28l-13 -167l146 18v-120l-146 18l13 -167h-28v-26l-167 13l18 -147h-120l18 147l-167 -13v26h-27l13 167l-147 -18v120l147 -18l-13 167h27zM534 519l-112 8v-121h120zM348 406v121l-111 -8l-9 -113h120zM422 332
v-119l112 8l8 111h-120zM236 221l112 -8v119h-120z" />
    <glyph glyph-name="approxequal" unicode="&#x2248;" horiz-adv-x="770" 
d="M176 578v29l167 -13l-18 146h120l-18 -146l167 13v-29h28l-13 -167l146 18v-120l-146 18l13 -167h-28v-26l-167 13l18 -147h-120l18 147l-167 -13v26h-27l13 167l-147 -18v120l147 -18l-13 167h27zM534 519l-112 8v-121h120zM348 406v121l-111 -8l-9 -113h120zM422 332
v-119l112 8l8 111h-120zM236 221l112 -8v119h-120z" />
    <glyph glyph-name="notequal" unicode="&#x2260;" horiz-adv-x="587" 
d="M94 0v439h-76v91h76v65q0 147 152 147q41 0 53 -3v-92q-8 2 -29 2q-62 0 -62 -62v-57h152v65q0 71 35.5 109t120.5 38q46 0 58 -3v-88q-8 2 -34 2q-67 0 -67 -62v-61h97v-91h-97v-439h-113v439h-152v-439h-114z" />
    <glyph glyph-name="lessequal" unicode="&#x2264;" horiz-adv-x="770" 
d="M176 578v29l167 -13l-18 146h120l-18 -146l167 13v-29h28l-13 -167l146 18v-120l-146 18l13 -167h-28v-26l-167 13l18 -147h-120l18 147l-167 -13v26h-27l13 167l-147 -18v120l147 -18l-13 167h27zM534 519l-112 8v-121h120zM348 406v121l-111 -8l-9 -113h120zM422 332
v-119l112 8l8 111h-120zM236 221l112 -8v119h-120z" />
    <glyph glyph-name="greaterequal" unicode="&#x2265;" horiz-adv-x="770" 
d="M176 578v29l167 -13l-18 146h120l-18 -146l167 13v-29h28l-13 -167l146 18v-120l-146 18l13 -167h-28v-26l-167 13l18 -147h-120l18 147l-167 -13v26h-27l13 167l-147 -18v120l147 -18l-13 167h27zM534 519l-112 8v-121h120zM348 406v121l-111 -8l-9 -113h120zM422 332
v-119l112 8l8 111h-120zM236 221l112 -8v119h-120z" />
    <glyph glyph-name="lozenge" unicode="&#x25ca;" horiz-adv-x="770" 
d="M176 578v29l167 -13l-18 146h120l-18 -146l167 13v-29h28l-13 -167l146 18v-120l-146 18l13 -167h-28v-26l-167 13l18 -147h-120l18 147l-167 -13v26h-27l13 167l-147 -18v120l147 -18l-13 167h27zM534 519l-112 8v-121h120zM348 406v121l-111 -8l-9 -113h120zM422 332
v-119l112 8l8 111h-120zM236 221l112 -8v119h-120z" />
    <glyph glyph-name="apple" unicode="&#xf8ff;" horiz-adv-x="770" 
d="M176 578v29l167 -13l-18 146h120l-18 -146l167 13v-29h28l-13 -167l146 18v-120l-146 18l13 -167h-28v-26l-167 13l18 -147h-120l18 147l-167 -13v26h-27l13 167l-147 -18v120l147 -18l-13 167h27zM534 519l-112 8v-121h120zM348 406v121l-111 -8l-9 -113h120zM422 332
v-119l112 8l8 111h-120zM236 221l112 -8v119h-120z" />
    <glyph glyph-name="fi" unicode="&#xfb01;" horiz-adv-x="536" 
d="M359 617v107h115v-107h-115zM94 0v439h-76v91h76v65q0 147 152 147q41 0 53 -3v-92q-8 2 -29 2q-62 0 -62 -62v-57h87v-91h-87v-439h-114zM360 0v530h113v-530h-113z" />
    <glyph glyph-name="fl" unicode="&#xfb02;" horiz-adv-x="536" 
d="M94 0v439h-76v91h76v65q0 147 152 147q41 0 53 -3v-92q-8 2 -29 2q-62 0 -62 -62v-57h87v-91h-87v-439h-114zM360 0v740h113v-740h-113z" />
    <glyph glyph-name="NUL" horiz-adv-x="0" 
 />
  </font>
</defs>
</svg>
